ufc 225 ready player one into the badlands S03E07 the flash last week tonight star trek discovery español the 100 easyBCD ddr Formula 1 etrg lucifer Lost in Space 2018 s01e07 quantico the crossing GOTHAM atomic blonde rus expanse deadpool 2 big bang theory español fear the walking dead 2018 ITA TAKEN Supergirl Into the badlands black panther judge judy S22 fgt Dtone the handmaids tale Good Witch hindi 13 reasons why sense8 westworld S02 ettv masterchef australia etmovies westworld nascar ghosted FAMILY GUY ONE STRANGE ROCK poldark dtone Billions avengers infinity war 2018 the originals more s12e13 Silicon valley homeland avengers infinity war Elizabeth Bear brooklyn nine nine legion fear the walking dead s04e08 arrow avengers infinity war ita elementary ice the walking dead colony masterchef Vikings ethd the expanse Hereditary evo westworld s02e08 survivor arrow español Jurassic World 
Warning! Use a VPN When Downloading Torrents!
Your IP Address is 172.81.144.194. Location is United States
Your Internet Provider is tracking your torrent activity! Hide your IP ADDRESS with a VPN!
We strongly recommend using Trust.Zone VPN to anonymize your torrenting. It's FREE!
Get VPN Now for FREE!
ETTV Recommended TV Shows
Picnic.at.Hanging.Rock.S01.WEBRip.x264-PBS[ettv] torrent
Supergirl.S03E22.HDTV.x264-SVA[ettv] torrent
Elementary.S06E07.HDTV.x264-LOL[ettv] torrent
MasterChef.Australia.S10E27.HDTV.x264-SPC[ettv] torrent

ETTV Recommended Xvid
Bodysnatch 2018 BRRip.XViD-ETRG torrent
Alien.Code.2018.HDRip.XViD-ETRG torrent
7 Days in Entebbe.2018.HDRip.XViD-ETRG torrent
Acrimony.2018.HDRip.XviD.AC3-EVO torrent

ETTV Recommended HD
The.Night.Eats.the.World.2018.Multi.Bluray.1080p.x264.DTS-HDMA.5.1-DTOne torrent
Unsane.2018.BluRay.1080p.x264.DTS-HD.MA5.1-DTOne torrent
7 Days in Entebbe.2018.1080p.WEB-DL.H264.AC3-EVO[EtHD] torrent
Acrimony 2018 1080p WEB-DL DD5 1 H264-CMRG[EtHD] torrent

ETTV Recommended Cam
Deadpool 2 2018 HD-TS.XViD.AC3-ETRG torrent
Rampage 2018 NEW HD-TS X264-24HD torrent
Jurassic World Fallen Kingdom 2018 720p HDCAM V.2 X264-24HD torrent
Oceans.8.2018.CAM.X264-CaixistaEstupido torrent

ETTV Recommended Foreign
October.2018.HDRip.XViD-ETRG torrent
Kaala.2018.DesipDVD Rip HEVC x265 AAC 2.0 -DTOne torrent
Badmaash (2018) 1080p - UntoucheD WEB HD - AVC - AAC - DTOne Exclusive.mp4 torrent
Baaghi 2 (2018) 1080p UntoucheD WEB HD - AVC - AAC - E-Subs - DTOne Exclusive torrent

Social

Loading...

Download Torrent "Van Damme 37 Kickboxer Retaliation (2018) (1080p BluRay 10bit x265 HEVC AAC..."

IMDB Details
Description:

N/A

Genre:

N/A

Download Torrent (Magnet)
Download Torrent (File)
Seeds: 35
Leechers: 17
Completed: 855 
Last Checked: 10-06-2018 17:34:14


Loading...
Details
Title:Van Damme 37 Kickboxer Retaliation (2018) (1080p BluRay 10bit x265 HEVC AAC...
Description:





Media Information
General
Format                                   : Matroska
Format version                           : Version 4 / Version 2
File size                                : 3.43 GiB
Duration                                 : 1 h 50 min
Overall bit rate                         : 4 442 kb/s
Encoded date                             : UTC 2018-06-05 01:43:41
Writing application                      : mkvmerge v22.0.0 ('At The End Of The World') 64-bit
Writing library                          : libebml v1.3.5 + libmatroska v1.4.8

Video
ID                                       : 1
Format                                   : HEVC
Format/Info                              : High Efficiency Video Coding
Format profile                           : Main [email protected]@Main
Codec ID                                 : V_MPEGH/ISO/HEVC
Duration                                 : 1 h 50 min
Bit rate                                 : 4 216 kb/s
Width                                    : 1 920 pixels
Height                                   : 1 080 pixels
Display aspect ratio                     : 16:9
Frame rate mode                          : Constant
Frame rate                               : 23.976 (24000/1001) FPS
Color space                              : YUV
Chroma subsampling                       : 4:2:0
Bit depth                                : 10 bits
Bits/(Pixel*Frame)                       : 0.085
Stream size                              : 3.25 GiB (95%)
Writing library                          : x265 2.8+3-450421921079:[Windows][MSVC 1914][64 bit] 10bit
Encoding settings                        : cpuid=1111039 / frame-threads=2 / numa-pools=4 / wpp / no-pmode / no-pme / no-psnr / no-ssim / log-level=2 / input-csp=1 / input-res=1920x1080 / interlace=0 / total-frames=158834 / level-idc=0 / high-tier=1 / uhd-bd=0 / ref=4 / no-allow-non-conformance / no-repeat-headers / annexb / no-aud / no-hrd / info / hash=0 / no-temporal-layers / open-gop / min-keyint=23 / keyint=250 / gop-lookahead=0 / bframes=8 / b-adapt=2 / b-pyramid / bframe-bias=0 / rc-lookahead=50 / lookahead-slices=4 / scenecut=40 / radl=0 / no-intra-refresh / ctu=64 / min-cu-size=8 / no-rect / no-amp / max-tu-size=32 / tu-inter-depth=1 / tu-intra-depth=1 / limit-tu=0 / rdoq-level=2 / dynamic-rd=0.00 / no-ssim-rd / signhide / no-tskip / nr-intra=0 / nr-inter=0 / no-constrained-intra / no-strong-intra-smoothing / max-merge=3 / limit-refs=3 / limit-modes / me=3 / subme=5 / merange=57 / temporal-mvp / weightp / no-weightb / no-analyze-src-pics / deblock=-3:-3 / no-sao / no-sao-non-deblock / rd=4 / no-early-skip / no-rskip / no-fast-intra / no-tskip-fast / no-cu-lossless / b-intra / no-splitrd-skip / rdpenalty=0 / psy-rd=1.00 / psy-rdoq=5.00 / no-rd-refine / no-lossless / cbqpoffs=0 / crqpoffs=0 / rc=crf / crf=19.5 / qcomp=0.60 / qpstep=4 / stats-write=0 / stats-read=0 / ipratio=1.40 / pbratio=1.30 / aq-mode=2 / aq-strength=1.00 / cutree / zone-count=0 / no-strict-cbr / qg-size=32 / no-rc-grain / qpmax=69 / qpmin=0 / no-const-vbv / sar=0 / overscan=0 / videoformat=5 / range=0 / colorprim=2 / transfer=2 / colormatrix=2 / chromaloc=0 / display-window=0 / max-cll=0,0 / min-luma=0 / max-luma=1023 / log2-max-poc-lsb=8 / vui-timing-info / vui-hrd-info / slices=1 / no-opt-qp-pps / no-opt-ref-list-length-pps / no-multi-pass-opt-rps / scenecut-bias=0.05 / no-opt-cu-delta-qp / no-aq-motion / no-hdr / no-hdr-opt / no-dhdr10-opt / no-idr-recovery-sei / analysis-reuse-level=5 / scale-factor=0 / refine-intra=0 / refine-inter=0 / refine-mv=0 / no-limit-sao / ctu-info=0 / no-lowpass-dct / refine-mv-type=0 / copy-pic=1 / max-ausize-factor=1.0 / no-dynamic-refine / no-single-sei
Language                                 : English
Default                                  : Yes
Forced                                   : No

Audio
ID                                       : 2
Format                                   : AAC
Format/Info                              : Advanced Audio Codec
Format profile                           : LC
Codec ID                                 : A_AAC
Duration                                 : 1 h 50 min
Bit rate                                 : 224 kb/s
Channel(s)                               : 6 channels
Channel positions                        : Front: L C R, Side: L R, LFE
Sampling rate                            : 32.0 kHz
Frame rate                               : 31.250 FPS (1024 spf)
Compression mode                         : Lossy
Stream size                              : 177 MiB (5%)
Language                                 : English
Default                                  : Yes
Forced                                   : No

Menu
00:00:00.000                             : en:Chapter 01
00:10:06.272                             : en:Chapter 02
00:18:42.204                             : en:Chapter 03
00:28:37.966                             : en:Chapter 04
00:37:02.595                             : en:Chapter 05
00:46:04.928                             : en:Chapter 06
00:54:35.772                             : en:Chapter 07
01:03:14.957                             : en:Chapter 08
01:11:55.019                             : en:Chapter 09
01:20:15.644                             : en:Chapter 10
01:30:37.348                             : en:Chapter 11
01:40:31.233                             : en:Chapter 12

Source Information
Release: Unknown Source/NO-GROUP



UTR wrote:

Note From UTR
We have no issue with individuals posting or re-uploading our torrents on a platform we aren't on. However, if this is something you'd like to do, please do so in a 'as-is' format. We ask that you do not create a new torrent, include all descriptions you see above including the UTR logo, tags, notes and screenshots. If you'd like to become a permanent poster on a website we don't post to, feel free to get in contact with a UniTeam member.

If possible please donate: BTC 1QA5fum5AyXvWzdVCkQzUNvw3Ef15fHRaR


Category:Movies > HEVC/x265
Lang:English  English
Total Size:3.43 GB
Info Hash:51bb7f4e6e30562ccc503c4224049299ccefda95
Added By:UTR
Date Added:10-06-2018 17:34:11

Files

File List: 
 File Size
Kickboxer.Armageddon.(2018).1080p.BluRay.10-bit.x265.AAC.5.1 Qman[UTR].mkv3.43 GB



Loading...
Comments

There are currently no comments. Be the first one to write something !

Disclaimer: None of the files shown here are actually hosted or transmitted by this server. The links are provided solely by this site's users. The site moderation is also a service provided by the site's users. The administrator of this site (ettv.tv) cannot be held responsible for what its users post, or any other actions of its users. You may not use this site to distribute or download any material when you do not have the legal rights to do so. It is your own responsibility to adhere to these terms.