dtone hereditary Doug Sneyd the handmaids tale humans S03E04 Colony S03E06 Lucifer playboy cartoons Handmaid star trek discovery español 13 reasons why the originals Impulse westworld family guy NATALIE HECK fgt Lost in Space 2018 s01e07 S.W.A.T.2017.S01E01.HDTV.x264 KILLERS ettv Gotham avengers infinity war 2018 Six survivor Into The Badlands Art of Doug Sneyd hindi SAVANNAH GOLD Elementary supergirl The Walking Dead arrow español brooklyn nine nine Deadpool 2 legion ddr big bang theory español The Expanse S03E09 ettv humans tomb raider the expanse QUANTICO black panther billions expanse the 100 CODE BLACK Krypton archer the secret life of pets JARUSHKA ROSS evo ethd doug syed Arrow.S06E02.HDTV.x264 LOL ettv atomic blonde rus avengers infinity war etmovies handmaids tale Ready player one etrg judge judy S22 masterchef australia Masterchef 2018 ita SEAL Team Fear the walking dead more s12e13 colony Supernatural the flash 
Warning! Use a VPN When Downloading Torrents!
Your IP Address is 172.81.144.194. Location is United States
Your Internet Provider is tracking your torrent activity! Hide your IP ADDRESS with a VPN!
We strongly recommend using Trust.Zone VPN to anonymize your torrenting. It's FREE!
Get VPN Now for FREE!
ETTV Recommended TV Shows
Marvels.Cloak.and.Dagger.S01E01.WEB.x264-TBS[ettv] torrent
Humans.S03E04.HDTV.x264-MTB[ettv] torrent
Nashville.2012.S06E09.WEB.x264-TBS[ettv] torrent
Sense8.S02E12.WEB.x264-STRiFE[ettv] torrent

ETTV Recommended Xvid
How.to.Talk.to.Girls.at.Parties.2017.BRRip.XViD-ETRG torrent
The.Rake.2018.HDRip.XViD-ETRG torrent
Unsane.2018.BRRip.XViD-ETRG torrent
Pacific.Rim.Uprising.2018.BRRip.XViD-ETRG torrent

ETTV Recommended HD
Star.Wars.4K77.2160p.UHD.no-DNR.35mm.x265-v1.0 [TN1] -DTOne torrent
Pacific.Rim.Uprising.2018.1080p.BluRay.x264-GECKOS[EtHD] torrent
Love,Simon.2018.Multi.1080p.Blu-ray.x264.DTS-HD.MA.5.1 (En+Fr+Sp+Hin)-DTOne torrent
211.2018.1080p.WEB-DL.H264.AC3-EVO[EtHD] torrent

ETTV Recommended Cam
Solo A Star Wars Story 2018 NEW HDTS XViD.AC3-ETRG torrent
Deadpool 2 2018 HD-TS.XViD.AC3-ETRG torrent
Jurassic World Fallen Kingdom.2018.HDCAM.XViD.AC3-ETRG torrent
Rampage 2018 NEW HD-TS X264-24HD torrent

ETTV Recommended Foreign
Missing.(2018).1-3.Web.Rip.x264.AC3.ESub-DTOne.Exclusive torrent
Indu Sarkar 2017 1080p WEB-DL AVC AAC 2.0 -DTOne ExCluSive torrent
Pandigai (2018) 480p Web Hq - AVC - AAC - E-Subs - DTOne Exclusive.mkv torrent
Khatarnak Policewala (2018) 720p Web Rip - AVC - AAC - E-Subs -  DTOne Exclusive torrent

Social

Loading...

Download Torrent "The Handmaid's Tale S02E01 (1080p WEBRip x265 HEVC 10bit AAC 5.1 Joy) [UTR]"

IMDB Details
Description:

N/A

Genre:

N/A

Download Torrent (Magnet)
Download Torrent (File)
Seeds: 64
Leechers: 9
Completed: 799 
Last Checked: 30-04-2018 15:21:17


Details
Title:The Handmaid's Tale S02E01 (1080p WEBRip x265 HEVC 10bit AAC 5.1 Joy) [UTR]
Description:






Media Information
General
Format                                   : Matroska
Format version                           : Version 4 / Version 2
File size                                : 517 MiB
Duration                                 : 56 min 12 s
Overall bit rate                         : 1 285 kb/s
Encoded date                             : UTC 2018-04-26 14:52:43
Writing application                      : mkvmerge v20.0.0 ('I Am The Sun') 64-bit
Writing library                          : libebml v1.3.5 + libmatroska v1.4.8
Writing frontend                         : StaxRip v1.7.0.6

Video
ID                                       : 1
Format                                   : HEVC
Format/Info                              : High Efficiency Video Coding
Format profile                           : Main [email protected]@Main
Codec ID                                 : V_MPEGH/ISO/HEVC
Duration                                 : 56 min 11 s
Bit rate                                 : 1 201 kb/s
Width                                    : 1 920 pixels
Height                                   : 960 pixels
Display aspect ratio                     : 2.000
Frame rate mode                          : Constant
Frame rate                               : 23.976 (24000/1001) FPS
Color space                              : YUV
Chroma subsampling                       : 4:2:0
Bit depth                                : 10 bits
Bits/(Pixel*Frame)                       : 0.027
Stream size                              : 483 MiB (93%)
Writing library                          : x265 2.7+2-22c127ff05d5:[Windows][MSVC 1900][64 bit] 10bit
Encoding settings                        : cpuid=1173503 / frame-threads=4 / numa-pools=16 / wpp / no-pmode / no-pme / no-psnr / ssim / log-level=2 / input-csp=1 / input-res=1920x960 / interlace=0 / total-frames=80844 / level-idc=0 / high-tier=1 / uhd-bd=0 / ref=4 / no-allow-non-conformance / no-repeat-headers / annexb / no-aud / no-hrd / info / hash=0 / no-temporal-layers / open-gop / min-keyint=23 / keyint=250 / gop-lookahead=0 / bframes=4 / b-adapt=2 / b-pyramid / bframe-bias=0 / rc-lookahead=25 / lookahead-slices=4 / scenecut=40 / radl=0 / no-intra-refresh / ctu=64 / min-cu-size=8 / rect / no-amp / max-tu-size=32 / tu-inter-depth=1 / tu-intra-depth=1 / limit-tu=0 / rdoq-level=2 / dynamic-rd=0.00 / ssim-rd / signhide / no-tskip / nr-intra=0 / nr-inter=0 / no-constrained-intra / strong-intra-smoothing / max-merge=3 / limit-refs=3 / limit-modes / me=3 / subme=3 / merange=57 / temporal-mvp / weightp / weightb / no-analyze-src-pics / deblock=0:0 / sao / no-sao-non-deblock / rd=4 / no-early-skip / rskip / no-fast-intra / no-tskip-fast / no-cu-lossless / b-intra / no-splitrd-skip / rdpenalty=0 / psy-rd=1.30 / psy-rdoq=1.05 / no-rd-refine / no-lossless / cbqpoffs=0 / crqpoffs=0 / rc=abr / bitrate=1200 / qcomp=0.60 / qpstep=4 / stats-write=0 / stats-read=2 / cplxblur=20.0 / qblur=0.5 / ipratio=1.40 / pbratio=1.30 / aq-mode=3 / aq-strength=1.00 / cutree / zone-count=0 / no-strict-cbr / qg-size=32 / no-rc-grain / qpmax=69 / qpmin=0 / no-const-vbv / sar=0 / overscan=0 / videoformat=5 / range=1 / colorprim=2 / transfer=2 / colormatrix=2 / chromaloc=0 / display-window=0 / max-cll=0,0 / min-luma=0 / max-luma=1023 / log2-max-poc-lsb=8 / vui-timing-info / vui-hrd-info / slices=1 / no-opt-qp-pps / no-opt-ref-list-length-pps / no-multi-pass-opt-rps / scenecut-bias=0.05 / no-opt-cu-delta-qp / no-aq-motion / no-hdr / no-hdr-opt / no-dhdr10-opt / analysis-reuse-level=5 / scale-factor=0 / refine-intra=0 / refine-inter=0 / refine-mv=0 / no-limit-sao / ctu-info=0 / no-lowpass-dct / refine-mv-type=0 / copy-pic=1
Default                                  : Yes
Forced                                   : No
Color range                              : Full

Audio
ID                                       : 2
Format                                   : AAC
Format/Info                              : Advanced Audio Codec
Format profile                           : HE-AAC / LC
Codec ID                                 : A_AAC
Duration                                 : 56 min 12 s
Bit rate                                 : 82.2 kb/s
Channel(s)                               : 2 channels
Channel positions                        : Front: L R
Sampling rate                            : 48.0 kHz / 24.0 kHz
Frame rate                               : 23.438 FPS (1024 spf)
Compression mode                         : Lossy
Delay relative to video                  : 31 ms
Stream size                              : 33.0 MiB (6%)
Language                                 : English
Default                                  : Yes
Forced                                   : No

Subtitle #1
ID                                       : 3
Format                                   : UTF-8
Codec ID                                 : S_TEXT/UTF8
Codec ID/Info                            : UTF-8 Plain Text
Duration                                 : 54 min 42 s
Bit rate                                 : 46 b/s
Count of elements                        : 615
Stream size                              : 18.8 KiB (0%)
Language                                 : English
Default                                  : No
Forced                                   : No

Subtitle #2
ID                                       : 4
Format                                   : UTF-8
Codec ID                                 : S_TEXT/UTF8
Codec ID/Info                            : UTF-8 Plain Text
Duration                                 : 54 min 42 s
Bit rate                                 : 46 b/s
Count of elements                        : 613
Stream size                              : 18.7 KiB (0%)
Language                                 : Spanish
Default                                  : No
Forced                                   : No

Menu
00:00:00.000                             : en:Chapter 1
00:28:20.333                             : en:Chapter 2
00:41:16.625                             : en:Chapter 3
00:46:44.458                             : en:Chapter 4

Source Information
Release: The.Handmaid's.Tale.S02E01.June.1080p.HULU.WEB-DL.AAC2.0.H.264-NTb.mkv (1.72 GBs)



UTR wrote:

Note From UTR
We have no issue with individuals posting or re-uploading our torrents on a platform we aren't on. However, if this is something you'd like to do, please do so in a 'as-is' format. We ask that you do not create a new torrent, include all descriptions you see above including the UTR logo, tags, notes and screenshots. If you'd like to become a permanent poster on a website we don't post to, feel free to get in contact with a UniTeam member.

If possible please donate: BTC 1QA5fum5AyXvWzdVCkQzUNvw3Ef15fHRaR



Category:TV > HEVC/x265
Lang:English  English
Total Size:517 MB
Info Hash:ca4a12cacf17073caaba85251a6e2588bb86e4f9
Added By:UTR
Date Added:30-04-2018 15:21:13

Files

File List: 
 File Size
The Handmaid's Tale S02E01 June (1080p x265 10bit S94 Joy).mkv517 MB



Loading...
Comments

There are currently no comments. Be the first one to write something !

Disclaimer: None of the files shown here are actually hosted or transmitted by this server. The links are provided solely by this site's users. The site moderation is also a service provided by the site's users. The administrator of this site (ettv.tv) cannot be held responsible for what its users post, or any other actions of its users. You may not use this site to distribute or download any material when you do not have the legal rights to do so. It is your own responsibility to adhere to these terms.