s.w.a.t.2017.s01e01.hdtv.x264 killers ettv rampage ettv billions family guy Red Sparrow Elizabeth Bear legion humans dtone more s12e13 ddr 13 reasons why gotham fgt Arrow evo masterchef avengers infinity war 2018 archer atomic blonde rus Westworld Dtone etmovies the handmaids tale sense8 Colony SEAL Team the originals expanse IMPOSTERS easyBCD tomb raider judge judy S22 jurassic world infinity war black panther the 100 lucifer The expanse supergirl Elementary The walking dead etrg survivor avengers infinity war Brooklyn Nine Nine Into The Badlands deadpool 2 ethd 2018 ITA Ready Player One mr robot en español Handmaid hindi Arrow.S06E02.HDTV.x264 LOL ettv the flash the secret life of pets the expanse s03e09 arrow español Six Lost in Space 2018 s01e07 big bang theory español QUANTICO star trek discovery español Krypton hereditary 
Warning! Use a VPN When Downloading Torrents!
Your IP Address is 172.81.144.194. Location is United States
Your Internet Provider is tracking your torrent activity! Hide your IP ADDRESS with a VPN!
We strongly recommend using Trust.Zone VPN to anonymize your torrenting. It's FREE!
Get VPN Now for FREE!
ETTV Recommended TV Shows
Marvels.Cloak.and.Dagger.S01E01.WEB.x264-TBS[ettv] torrent
Humans.S03E04.HDTV.x264-MTB[ettv] torrent
Nashville.2012.S06E09.WEB.x264-TBS[ettv] torrent
Sense8.S02E12.WEB.x264-STRiFE[ettv] torrent

ETTV Recommended Xvid
Unsane.2018.BRRip.XViD-ETRG torrent
Pacific.Rim.Uprising.2018.BRRip.XViD-ETRG torrent
211 2018 HDRip.XViD-ETRG torrent
2036.Origin.Unknown.2018.HDRip.XviD.AC3-EVO torrent

ETTV Recommended HD
Star.Wars.4K77.2160p.UHD.no-DNR.35mm.x265-v1.0 [TN1] -DTOne torrent
Pacific.Rim.Uprising.2018.1080p.BluRay.x264-GECKOS[EtHD] torrent
211.2018.1080p.WEB-DL.H264.AC3-EVO[EtHD] torrent
2036 Origin Unknown.2018.1080p.WEB-DL.DD5.1.H264-CMRG[EtHD] torrent

ETTV Recommended Cam
Deadpool 2 2018 HD-TS.XViD.AC3-ETRG torrent
Rampage 2018 NEW HD-TS X264-24HD torrent
Jurassic World Fallen Kingdom 2018 720p HDCAM V.2 X264-24HD torrent
Oceans.8.2018.CAM.X264-CaixistaEstupido torrent

ETTV Recommended Foreign
Pandigai (2018) 480p Web Hq - AVC - AAC - E-Subs - DTOne Exclusive.mkv torrent
Khatarnak Policewala (2018) 720p Web Rip - AVC - AAC - E-Subs -  DTOne Exclusive torrent
Kaali (2018) [TAMIL - 720p - WEB HDRip - x264 - DD 5.1 - ESub - 2GB] - MAZE torrent
Blame.2017.1080p.BluRay.x264-GHOULS[EtHD] torrent

Social

Loading...

Download Torrent "The Handmaid's Tale (2017) Season 1 S01 (1080p BluRay x265 HEVC 10bit AAC 5..."

IMDB Details
Description:

N/A

Genre:

N/A

Download Torrent (Magnet)
Download Torrent (File)
Seeds: 1,103
Leechers: 646
Completed: 20,363 
Last Checked: 19-03-2018 00:56:54


Details
Title:The Handmaid's Tale (2017) Season 1 S01 (1080p BluRay x265 HEVC 10bit AAC 5...
Description:


Encode Screenshots (Click for full quality)







Media Information
General
Format                                   : Matroska
Format version                           : Version 4 / Version 2
File size                                : 1.58 GiB
Duration                                 : 57 min 22 s
Overall bit rate                         : 3 936 kb/s
Encoded date                             : UTC 2018-03-18 11:47:44
Writing application                      : mkvmerge v9.6.0 ('Slave To Your Mind') 64bit
Writing library                          : libebml v1.3.4 + libmatroska v1.4.5
Writing frontend                         : StaxRip 1.5.0.0

Video
ID                                       : 1
Format                                   : HEVC
Format/Info                              : High Efficiency Video Coding
Format profile                           : Main [email protected]@Main
Codec ID                                 : V_MPEGH/ISO/HEVC
Duration                                 : 57 min 22 s
Bit rate                                 : 3 457 kb/s
Width                                    : 1 920 pixels
Height                                   : 1 080 pixels
Display aspect ratio                     : 16:9
Frame rate mode                          : Constant
Frame rate                               : 23.976 (24000/1001) FPS
Color space                              : YUV
Chroma subsampling                       : 4:2:0
Bit depth                                : 10 bits
Bits/(Pixel*Frame)                       : 0.070
Stream size                              : 1.39 GiB (88%)
Writing library                          : x265 2.7+12-98e48e8dd6ab:[Windows][MSVC 1900][64 bit] 10bit
Encoding settings                        : cpuid=1173503 / frame-threads=4 / numa-pools=16 / wpp / no-pmode / no-pme / no-psnr / no-ssim / log-level=2 / input-csp=1 / input-res=1920x1080 / interlace=0 / total-frames=82544 / level-idc=0 / high-tier=1 / uhd-bd=0 / ref=5 / no-allow-non-conformance / no-repeat-headers / annexb / no-aud / no-hrd / info / hash=0 / no-temporal-layers / open-gop / min-keyint=23 / keyint=250 / gop-lookahead=0 / bframes=8 / b-adapt=2 / b-pyramid / bframe-bias=0 / rc-lookahead=80 / lookahead-slices=4 / scenecut=40 / radl=0 / no-intra-refresh / ctu=64 / min-cu-size=8 / rect / no-amp / max-tu-size=32 / tu-inter-depth=1 / tu-intra-depth=1 / limit-tu=0 / rdoq-level=2 / dynamic-rd=0.00 / no-ssim-rd / signhide / no-tskip / nr-intra=0 / nr-inter=0 / no-constrained-intra / strong-intra-smoothing / max-merge=3 / limit-refs=3 / limit-modes / me=3 / subme=5 / merange=57 / temporal-mvp / weightp / weightb / no-analyze-src-pics / deblock=-3:-3 / no-sao / no-sao-non-deblock / rd=4 / no-early-skip / no-rskip / no-fast-intra / no-tskip-fast / no-cu-lossless / no-b-intra / no-splitrd-skip / rdpenalty=0 / psy-rd=1.70 / psy-rdoq=2.00 / no-rd-refine / no-lossless / cbqpoffs=0 / crqpoffs=0 / rc=crf / crf=20.0 / qcomp=0.60 / qpstep=4 / stats-write=0 / stats-read=0 / ipratio=1.40 / pbratio=1.30 / aq-mode=3 / aq-strength=1.00 / cutree / zone-count=0 / no-strict-cbr / qg-size=32 / no-rc-grain / qpmax=69 / qpmin=0 / no-const-vbv / sar=0 / overscan=0 / videoformat=5 / range=0 / colorprim=2 / transfer=2 / colormatrix=2 / chromaloc=0 / display-window=0 / max-cll=0,0 / min-luma=0 / max-luma=1023 / log2-max-poc-lsb=8 / vui-timing-info / vui-hrd-info / slices=1 / no-opt-qp-pps / no-opt-ref-list-length-pps / no-multi-pass-opt-rps / scenecut-bias=0.05 / no-opt-cu-delta-qp / no-aq-motion / no-hdr / no-hdr-opt / no-dhdr10-opt / no-idr-recovery-sei / analysis-reuse-level=5 / scale-factor=0 / refine-intra=0 / refine-inter=0 / refine-mv=0 / no-limit-sao / ctu-info=0 / no-lowpass-dct / refine-mv-type=0 / copy-pic=1 / max-ausize-factor=1.0 / no-dynamic-refine
Default                                  : Yes
Forced                                   : No

Audio
ID                                       : 2
Format                                   : AAC
Format/Info                              : Advanced Audio Codec
Format profile                           : LC
Codec ID                                 : A_AAC
Duration                                 : 57 min 22 s
Bit rate                                 : 444 kb/s
Channel(s)                               : 6 channels
Channel positions                        : Front: L C R, Side: L R, LFE
Sampling rate                            : 48.0 kHz
Frame rate                               : 46.875 FPS (1024 spf)
Compression mode                         : Lossy
Delay relative to video                  : 20 ms
Stream size                              : 182 MiB (11%)
Language                                 : English
Default                                  : Yes
Forced                                   : No

Subtitle #1
ID                                       : 3
Format                                   : PGS
Muxing mode                              : zlib
Codec ID                                 : S_HDMV/PGS
Codec ID/Info                            : Picture based subtitle format used on BDs/HD-DVDs
Duration                                 : 57 min 8 s
Bit rate                                 : 9 900 b/s
Count of elements                        : 1498
Stream size                              : 4.05 MiB (0%)
Language                                 : English
Default                                  : No
Forced                                   : No

Subtitle #2
ID                                       : 4
Format                                   : PGS
Muxing mode                              : zlib
Codec ID                                 : S_HDMV/PGS
Codec ID/Info                            : Picture based subtitle format used on BDs/HD-DVDs
Duration                                 : 57 min 5 s
Bit rate                                 : 6 984 b/s
Count of elements                        : 1150
Stream size                              : 2.85 MiB (0%)
Language                                 : French
Default                                  : No
Forced                                   : No

Subtitle #3
ID                                       : 5
Format                                   : PGS
Muxing mode                              : zlib
Codec ID                                 : S_HDMV/PGS
Codec ID/Info                            : Picture based subtitle format used on BDs/HD-DVDs
Duration                                 : 56 min 21 s
Bit rate                                 : 8 256 b/s
Count of elements                        : 1258
Stream size                              : 3.33 MiB (0%)
Language                                 : German
Default                                  : No
Forced                                   : No

Subtitle #4
ID                                       : 6
Format                                   : PGS
Muxing mode                              : zlib
Codec ID                                 : S_HDMV/PGS
Codec ID/Info                            : Picture based subtitle format used on BDs/HD-DVDs
Duration                                 : 56 min 21 s
Bit rate                                 : 7 814 b/s
Count of elements                        : 1278
Stream size                              : 3.15 MiB (0%)
Language                                 : Spanish
Default                                  : No
Forced                                   : No

Menu
00:00:00.000                             : en:Chapter 1
00:04:46.119                             : en:Chapter 2
00:10:30.088                             : en:Chapter 3
00:13:40.069                             : en:Chapter 4
00:16:09.969                             : en:Chapter 5
00:22:43.445                             : en:Chapter 6
00:33:51.571                             : en:Chapter 7
00:38:00.695                             : en:Chapter 8
00:40:18.833                             : en:Chapter 9
00:48:07.968                             : en:Chapter 10
00:53:18.987                             : en:Chapter 11
00:55:49.429                             : en:Chapter 12

Source Information
Release : The.Handmaids.Tale.S01.1080p.BluRay.REMUX.AVC.DTS-HD.MA.5.1-EPSiLON



Note from QxR:
Whilst we are happy for our releases to be re-posted on a platform we aren't on, please do so in an 'as-is' format. We ask that you do not create a new torrent, include all descriptions you see above including the QxR logo, tags, notes and screenshots. If you'd like to become a permanent poster on a website we don't post to, feel free to get in contact with a QxR member.
Category:TV > HEVC/x265
Lang:English  English
Total Size:11.29 GB
Info Hash:f66b970ada7aca230b36451181aadc78b382ab09
Added By:QxR
Date Added:19-03-2018 00:56:50

Files

File List: 
 File Size
The Handmaid's Tale (2017) - S01E01 - Offred (1080p BluRay x265 Silence).mkv1.58 GB
The Handmaid's Tale (2017) - S01E02 - Birth Day (1080p BluRay x265 Silence).mkv1.09 GB
The Handmaid's Tale (2017) - S01E03 - Late (1080p BluRay x265 Silence).mkv1.12 GB
The Handmaid's Tale (2017) - S01E04 - Nolite Te Bastardes Carborundorum (1080p BluRay x265 Silence).mkv1.00 GB
The Handmaid's Tale (2017) - S01E05 - Faithful (1080p BluRay x265 Silence).mkv1.12 GB
The Handmaid's Tale (2017) - S01E06 - A Woman's Place (1080p BluRay x265 Silence).mkv1.01 GB
The Handmaid's Tale (2017) - S01E07 - The Other Side (1080p BluRay x265 Silence).mkv1.30 GB
The Handmaid's Tale (2017) - S01E08 - Jezebels (1080p BluRay x265 Silence).mkv920 MB
The Handmaid's Tale (2017) - S01E09 - The Bridge (1080p BluRay x265 Silence).mkv981 MB
The Handmaid's Tale (2017) - S01E10 - Night (1080p BluRay x265 Silence).mkv1.21 GB



Loading...
Comments

There are currently no comments. Be the first one to write something !

Disclaimer: None of the files shown here are actually hosted or transmitted by this server. The links are provided solely by this site's users. The site moderation is also a service provided by the site's users. The administrator of this site (ettv.tv) cannot be held responsible for what its users post, or any other actions of its users. You may not use this site to distribute or download any material when you do not have the legal rights to do so. It is your own responsibility to adhere to these terms.