star trek discovery español brooklyn nine nine deadpool 2 etrg ettv arrow español Supernatural Legion The walking dead Survivor killing eve Vikings fgt hindi handmaids tale black panther colony Ano hana The Flower We Saw That Day the americans tomb raider supergirl westworld judge judy S22 six young sheldon lucifer britains s12e18 dtone ddr silicon valley italian MasterChef more s12e13 S.W.A.T.2017.S01E01.HDTV.x264 KILLERS ettv the expanse family guy Lost in Space 2018 s01e07 Gotham into the badlands taken Avengers Infinity war humans Homeland avengers infinity war 2018 the 100 more s12e10 black panther ita Motogp 2018 early man motogp expanse big bang theory español SEAL Team ready player one 13 reasons why ethd deadpool billions arrow Arrow.S06E02.HDTV.x264 LOL ettv The originals krypton fear the walking dead quantico the secret life of pets tomb raider 2018 evo The Flash the thing etmovies 
Warning! Use a VPN When Downloading Torrents!
Your IP Address is 172.81.144.194. Location is United States
Your Internet Provider is tracking your torrent activity! Hide your IP ADDRESS with a VPN!
We strongly recommend using Trust.Zone VPN to anonymize your torrenting. It's FREE!
Get VPN Now for FREE!
ETTV Recommended TV Shows
Westworld.S02E07.WEB.H264-DEFLATE[ettv] torrent
Fear.the.Walking.Dead.S04E07.HDTV.x264-SVA[ettv] torrent
Succession.S01E01.WEB.H264-DEFLATE[ettv] torrent
Into.the.Badlands.S03E06.HDTV.x264-SVA[ettv] torrent

ETTV Recommended Xvid
Sherlock.Gnomes.2018.BRRip.XViD-ETRG torrent
Edge.of.Isolation.2018.HDRip.XViD-ETRG torrent
The.Mercy.2018.BRRip.XViD-ETRG torrent
Oh.Lucy.2018.HDRip.XviD.AC3-EVO torrent

ETTV Recommended HD
The.Square.2017.Multi.Bluray.x264.DTS-HDMA.5.1-DTOne torrent
Tomb.Raider.2018.Multi.BluRay.1080p.x264.Atmos.7.1-DTOne torrent
The Foreigner 2017 Blu-ray 1080p x264 DTS-HDMA 5.1-DTOne torrent
The Lodgers 2018.1080p.Bluray.X264-EVO[EtHD] torrent

ETTV Recommended Cam
Breaking in 2018 HDCAM ENG X264-THAN0S torrent
Kings 2018 HDCAM ENG X264-THAN0S torrent
Solo A Star Wars Story 2018 NEW HDTS XViD.AC3-ETRG torrent
Deadpool 2 2018 NEW 720p HD-TC X264-CPG torrent

ETTV Recommended Foreign
Aksar.2.(2018).1-3.HDTv.Rip.x264.AC3-DTOne.Exclusive torrent
Veer (Vivegam) (2018) HDRip x264 (Hindi-Telugu-Tamil)  - DTOne torrent
Sethupathi (2017) 720p UntoucheD WEB HD - AVC - AAC - E-Subs - DTOne Exclusive torrent
Krishnarjuna Yudham.2018.WEBDL.1080P.X263.AAC.ESUB.DTONE torrent

Social

Loading...

Download Torrent "Sethupathi (2017) 720p UntoucheD WEB HD - AVC - AAC - E-Subs - DTOne Exclus..."

IMDB Details
Description:

N/A

Genre:

N/A

Download Torrent (Magnet)
Download Torrent (File)
Seeds: 67
Leechers: 118
Completed: 126 
Last Checked: 03-06-2018 17:40:48


Loading...
Details
Title:Sethupathi (2017) 720p UntoucheD WEB HD - AVC - AAC - E-Subs - DTOne Exclus...
Description:
/



Sethupathi
(2018)
720p UntoucheD WEB HD - AVC - AAC - E-Subs - DTOne Exclusive



=====================================================
Movie Info
Banner : GOLDMINES...
Year : 2018
Cast : Vijay Sethupathi, Remya Nambeesan
Video: AVC
Audio : AAC Hindi
Genre : Crime, Drama, Mystery
Subtitles : English
Resolution : 1280 x 720
Runtime : 1hr 41min xx
Source : DTOne
=====================================================

SCREENSHOTS
===========


Video
ID                                      : 1
Format                                  : AVC
Format/Info                              : Advanced Video Codec
Format profile                          : [email protected]
Format settings                          : CABAC / 3 Ref Frames
Format settings, CABAC                  : Yes
Format settings, RefFrames              : 3 frames
Codec ID                                : avc1
Codec ID/Info                            : Advanced Video Coding
Duration                                : 1 h 41 min
Bit rate                                : 1 312 kb/s
Width                                    : 1 280 pixels
Height                                  : 720 pixels
Display aspect ratio                    : 16:9
Frame rate mode                          : Constant
Frame rate                              : 25.000 FPS
Color space                              : YUV
Chroma subsampling                      : 4:2:0
Bit depth                                : 8 bits
Scan type                                : Progressive
Bits/(Pixel*Frame)                      : 0.057
Stream size                              : 953 MiB (91%)

Color range                              : Limited
Color primaries                          : BT.709
Transfer characteristics                : BT.709
Matrix coefficients                      : BT.709

Audio
ID                                      : 2
Format                                  : AAC
Format/Info                              : Advanced Audio Codec
Format profile                          : LC
Codec ID                                : mp4a-40-2
Duration                                : 1 h 41 min
Bit rate mode                            : Variable
Bit rate                                : 126 kb/s
Channel(s)                              : 2 channels
Channel positions                        : Front: L R
Sampling rate                            : 44.1 kHz
Frame rate                              : 43.066 FPS (1024 SPF)
Compression mode                        : Lossy
Stream size                              : 91.2 MiB (9%)
Language                                : English




Xclusive DTOne Rlzz

Category:Movies > HD 720p
Lang:Hindi  Hindi
Total Size:1.02 GB
Info Hash:332bf3e20e0f4bc74f5bfea256e1fcf29b887c35
Added By:DTOne
Date Added:03-06-2018 17:40:45

  

Files

File List: 
 File Size
Sethupathi (2017) 720p UntoucheD WEB HD - AVC - AAC - E-Subs - DTOne Exclusive.mp41.02 GB
Sethupathi (2017) 720p UntoucheD WEB HD - AVC - AAC - E-Subs - DTOne Exclusive.srt110.82 kB
Torrent Downloaded from ettv.tv.txt59.00 B



Loading...
Comments

There are currently no comments. Be the first one to write something !

Disclaimer: None of the files shown here are actually hosted or transmitted by this server. The links are provided solely by this site's users. The site moderation is also a service provided by the site's users. The administrator of this site (ettv.tv) cannot be held responsible for what its users post, or any other actions of its users. You may not use this site to distribute or download any material when you do not have the legal rights to do so. It is your own responsibility to adhere to these terms.