FEAR THE WALKING DEAD code black last week tonight wwe raw the expanse 13 reasons why 2018 ITA Jurassic World hindi ettv arrow español star trek discovery español Hereditary avengers infinity war ita Supergirl Legion ddr easyBCD survivor atomic blonde rus fgt black panther colony Lost in Space 2018 s01e07 the handmaids tale more s12e13 Lucifer TAKEN etmovies street outlaws etrg Vikings gotham ghosted masterchef australia Westworld S02 into the badlands S03E07 judge judy S22 DTone ready player one deadpool 2 westworld s02e08 Good Witch Family Guy poldark ethd billions elementary the 100 sense8 into the badlands avengers infinity war 2018 love island avengers infinity war The flash masterchef the originals dtone homeland ONE STRANGE ROCK Westworld Elizabeth Bear the crossing supergirl s03e22 The Walking Dead ufc 225 wwe Scorpion.S04E06 big bang theory español Arrow nascar evo 
Warning! Use a VPN When Downloading Torrents!
Your IP Address is 172.81.144.194. Location is United States
Your Internet Provider is tracking your torrent activity! Hide your IP ADDRESS with a VPN!
We strongly recommend using Trust.Zone VPN to anonymize your torrenting. It's FREE!
Get VPN Now for FREE!
ETTV Recommended TV Shows
Picnic.at.Hanging.Rock.S01.WEBRip.x264-PBS[ettv] torrent
Supergirl.S03E22.HDTV.x264-SVA[ettv] torrent
Elementary.S06E07.HDTV.x264-LOL[ettv] torrent
MasterChef.Australia.S10E27.HDTV.x264-SPC[ettv] torrent

ETTV Recommended Xvid
Bodysnatch 2018 BRRip.XViD-ETRG torrent
Alien.Code.2018.HDRip.XViD-ETRG torrent
7 Days in Entebbe.2018.HDRip.XViD-ETRG torrent
Acrimony.2018.HDRip.XviD.AC3-EVO torrent

ETTV Recommended HD
7 Days in Entebbe.2018.1080p.WEB-DL.H264.AC3-EVO[EtHD] torrent
Acrimony 2018 1080p WEB-DL DD5 1 H264-CMRG[EtHD] torrent
The.5th.Wave.2016.Multi.BluRay.2160p.x265.HDR.Atmos.7.1-DTOne torrent
Forrest Gump.1994.Multi.UHD.Bluray.2160p.x265.HDR.Atmos.7.1-DTOne torrent

ETTV Recommended Cam
Deadpool 2 2018 HD-TS.XViD.AC3-ETRG torrent
Rampage 2018 NEW HD-TS X264-24HD torrent
Jurassic World Fallen Kingdom 2018 720p HDCAM V.2 X264-24HD torrent
Oceans.8.2018.CAM.X264-CaixistaEstupido torrent

ETTV Recommended Foreign
October.2018.HDRip.XViD-ETRG torrent
Kaala.2018.DesipDVD Rip HEVC x265 AAC 2.0 -DTOne torrent
Badmaash (2018) 1080p - UntoucheD WEB HD - AVC - AAC - DTOne Exclusive.mp4 torrent
Baaghi 2 (2018) 1080p UntoucheD WEB HD - AVC - AAC - E-Subs - DTOne Exclusive torrent

Social

Loading...

Download Torrent "Red Sparrow (2018) (1080p BluRay x265 HEVC 10bit AAC 7.1 Joy) [UTR]"

IMDB Details
Description:

Ballerina Dominika Egorova is recruited to 'Sparrow School,' a Russian intelligence service where she is forced to use her body as a weapon. Her first mission, targeting a C.I.A. agent, threatens to unravel the security of both nations.

Genre:

Drama, Mystery, Thriller

Download Torrent (Magnet)
Download Torrent (File)
Seeds: 62
Leechers: 9
Completed: 1,416 
Last Checked: 06-06-2018 15:18:09


Loading...
Details
Title:Red Sparrow (2018) (1080p BluRay x265 HEVC 10bit AAC 7.1 Joy) [UTR]
Description:





Media Information
General
Format                                   : Matroska
Format version                           : Version 4 / Version 2
File size                                : 1.82 GiB
Duration                                 : 2 h 20 min
Overall bit rate                         : 1 862 kb/s
Movie name                               : Red Sparrow 2018  (1080p x265 10bit S98 Joy)[UTR]
Encoded date                             : UTC 2018-05-30 01:57:30
Writing application                      : mkvmerge v21.0.0 ('Tardigrades Will Inherit The Earth') 64-bit
Writing library                          : libebml v1.3.5 + libmatroska v1.4.8
Cover                                    : Yes
Attachments                              : cover.jpg
Writing frontend                         : StaxRip v1.7.0.6

Video
ID                                       : 1
Format                                   : HEVC
Format/Info                              : High Efficiency Video Coding
Format profile                           : Main [email protected]@Main
Codec ID                                 : V_MPEGH/ISO/HEVC
Duration                                 : 2 h 20 min
Bit rate                                 : 1 501 kb/s
Width                                    : 1 920 pixels
Height                                   : 800 pixels
Display aspect ratio                     : 2.40:1
Frame rate mode                          : Constant
Frame rate                               : 23.976 (24000/1001) FPS
Color space                              : YUV
Chroma subsampling                       : 4:2:0
Bit depth                                : 10 bits
Bits/(Pixel*Frame)                       : 0.041
Stream size                              : 1.47 GiB (81%)
Writing library                          : x265 2.7+2-22c127ff05d5:[Windows][MSVC 1900][64 bit] 10bit
Encoding settings                        : cpuid=1173503 / frame-threads=4 / numa-pools=16 / wpp / no-pmode / no-pme / no-psnr / ssim / log-level=2 / input-csp=1 / input-res=1920x800 / interlace=0 / total-frames=201740 / level-idc=0 / high-tier=1 / uhd-bd=0 / ref=4 / no-allow-non-conformance / no-repeat-headers / annexb / no-aud / no-hrd / info / hash=0 / no-temporal-layers / open-gop / min-keyint=23 / keyint=250 / gop-lookahead=0 / bframes=4 / b-adapt=2 / b-pyramid / bframe-bias=0 / rc-lookahead=25 / lookahead-slices=4 / scenecut=40 / radl=0 / no-intra-refresh / ctu=64 / min-cu-size=8 / rect / no-amp / max-tu-size=32 / tu-inter-depth=1 / tu-intra-depth=1 / limit-tu=0 / rdoq-level=2 / dynamic-rd=0.00 / ssim-rd / signhide / no-tskip / nr-intra=0 / nr-inter=0 / no-constrained-intra / strong-intra-smoothing / max-merge=3 / limit-refs=3 / limit-modes / me=3 / subme=3 / merange=57 / temporal-mvp / weightp / weightb / no-analyze-src-pics / deblock=0:0 / sao / no-sao-non-deblock / rd=6 / no-early-skip / rskip / no-fast-intra / no-tskip-fast / no-cu-lossless / b-intra / no-splitrd-skip / rdpenalty=0 / psy-rd=1.30 / psy-rdoq=1.05 / no-rd-refine / no-lossless / cbqpoffs=0 / crqpoffs=0 / rc=abr / bitrate=1500 / qcomp=0.60 / qpstep=4 / stats-write=0 / stats-read=2 / cplxblur=20.0 / qblur=0.5 / ipratio=1.40 / pbratio=1.30 / aq-mode=3 / aq-strength=1.00 / cutree / zone-count=0 / no-strict-cbr / qg-size=32 / no-rc-grain / qpmax=69 / qpmin=0 / no-const-vbv / sar=0 / overscan=0 / videoformat=5 / range=0 / colorprim=2 / transfer=2 / colormatrix=2 / chromaloc=0 / display-window=0 / max-cll=0,0 / min-luma=0 / max-luma=1023 / log2-max-poc-lsb=8 / vui-timing-info / vui-hrd-info / slices=1 / no-opt-qp-pps / no-opt-ref-list-length-pps / multi-pass-opt-rps / scenecut-bias=0.05 / no-opt-cu-delta-qp / no-aq-motion / no-hdr / no-hdr-opt / no-dhdr10-opt / analysis-reuse-level=5 / scale-factor=0 / refine-intra=0 / refine-inter=0 / refine-mv=0 / limit-sao / ctu-info=0 / no-lowpass-dct / refine-mv-type=0 / copy-pic=1
Default                                  : Yes
Forced                                   : No

Audio
ID                                       : 2
Format                                   : AAC
Format/Info                              : Advanced Audio Codec
Format profile                           : HE-AAC / LC
Codec ID                                 : A_AAC
Duration                                 : 2 h 20 min
Bit rate                                 : 279 kb/s
Channel(s)                               : 7 channels
Channel(s)_Original                      : 8 channels
Channel positions                        : Front: L C R, Side: L R, Back: L R, LFE
Sampling rate                            : 48.0 kHz / 24.0 kHz
Frame rate                               : 23.438 FPS (1024 spf)
Compression mode                         : Lossy
Delay relative to video                  : 31 ms
Stream size                              : 280 MiB (15%)
Title                                    : Red.Sparrow.2018.2160p.BluRay.x265.10bit.SDR.DTS-HD.MA.TrueHD.7.1.Atmos-SWTYBLZ
Language                                 : English
Default                                  : Yes
Forced                                   : No

Subtitle #1
ID                                       : 3
Format                                   : PGS
Muxing mode                              : zlib
Codec ID                                 : S_HDMV/PGS
Codec ID/Info                            : Picture based subtitle format used on BDs/HD-DVDs
Duration                                 : 2 h 12 min
Bit rate                                 : 34.6 kb/s
Count of elements                        : 3554
Stream size                              : 32.8 MiB (2%)
Language                                 : English
Default                                  : No
Forced                                   : No

Subtitle #2
ID                                       : 4
Format                                   : UTF-8
Codec ID                                 : S_TEXT/UTF8
Codec ID/Info                            : UTF-8 Plain Text
Duration                                 : 2 h 11 min
Bit rate                                 : 46 b/s
Count of elements                        : 1594
Stream size                              : 44.6 KiB (0%)
Language                                 : English
Default                                  : No
Forced                                   : No

Subtitle #3
ID                                       : 5
Format                                   : VobSub
Muxing mode                              : zlib
Codec ID                                 : S_VOBSUB
Codec ID/Info                            : Picture based subtitle format used on DVDs
Duration                                 : 2 h 12 min
Bit rate                                 : 10.2 kb/s
Count of elements                        : 1777
Stream size                              : 9.68 MiB (1%)
Language                                 : English
Default                                  : No
Forced                                   : No

Subtitle #4
ID                                       : 6
Format                                   : VobSub
Muxing mode                              : zlib
Codec ID                                 : S_VOBSUB
Codec ID/Info                            : Picture based subtitle format used on DVDs
Duration                                 : 2 h 18 min
Bit rate                                 : 7 482 b/s
Count of elements                        : 1463
Stream size                              : 7.42 MiB (0%)
Language                                 : Spanish
Default                                  : No
Forced                                   : No

Subtitle #5
ID                                       : 7
Format                                   : VobSub
Muxing mode                              : zlib
Codec ID                                 : S_VOBSUB
Codec ID/Info                            : Picture based subtitle format used on DVDs
Duration                                 : 2 h 18 min
Bit rate                                 : 6 635 b/s
Count of elements                        : 1459
Stream size                              : 6.58 MiB (0%)
Language                                 : French
Default                                  : No
Forced                                   : No

Subtitle #6
ID                                       : 8
Format                                   : VobSub
Muxing mode                              : zlib
Codec ID                                 : S_VOBSUB
Codec ID/Info                            : Picture based subtitle format used on DVDs
Duration                                 : 2 h 18 min
Bit rate                                 : 6 892 b/s
Count of elements                        : 1458
Stream size                              : 6.83 MiB (0%)
Language                                 : Spanish
Default                                  : No
Forced                                   : No

Subtitle #7
ID                                       : 9
Format                                   : VobSub
Muxing mode                              : zlib
Codec ID                                 : S_VOBSUB
Codec ID/Info                            : Picture based subtitle format used on DVDs
Duration                                 : 2 h 18 min
Bit rate                                 : 6 969 b/s
Count of elements                        : 1130
Stream size                              : 6.91 MiB (0%)
Language                                 : Danish
Default                                  : No
Forced                                   : No

Subtitle #8
ID                                       : 10
Format                                   : VobSub
Muxing mode                              : zlib
Codec ID                                 : S_VOBSUB
Codec ID/Info                            : Picture based subtitle format used on DVDs
Duration                                 : 2 h 18 min
Bit rate                                 : 6 606 b/s
Count of elements                        : 1213
Stream size                              : 6.55 MiB (0%)
Language                                 : Dutch
Default                                  : No
Forced                                   : No

Subtitle #9
ID                                       : 11
Format                                   : VobSub
Muxing mode                              : zlib
Codec ID                                 : S_VOBSUB
Codec ID/Info                            : Picture based subtitle format used on DVDs
Duration                                 : 2 h 18 min
Bit rate                                 : 6 835 b/s
Count of elements                        : 1453
Stream size                              : 6.78 MiB (0%)
Language                                 : Finnish
Default                                  : No
Forced                                   : No

Subtitle #10
ID                                       : 12
Format                                   : VobSub
Muxing mode                              : zlib
Codec ID                                 : S_VOBSUB
Codec ID/Info                            : Picture based subtitle format used on DVDs
Duration                                 : 2 h 18 min
Bit rate                                 : 8 670 b/s
Count of elements                        : 1431
Stream size                              : 8.60 MiB (0%)
Language                                 : German
Default                                  : No
Forced                                   : No

Subtitle #11
ID                                       : 13
Format                                   : VobSub
Muxing mode                              : zlib
Codec ID                                 : S_VOBSUB
Codec ID/Info                            : Picture based subtitle format used on DVDs
Duration                                 : 2 h 18 min
Bit rate                                 : 7 504 b/s
Count of elements                        : 1460
Stream size                              : 7.44 MiB (0%)
Language                                 : Italian
Default                                  : No
Forced                                   : No

Subtitle #12
ID                                       : 14
Format                                   : VobSub
Muxing mode                              : zlib
Codec ID                                 : S_VOBSUB
Codec ID/Info                            : Picture based subtitle format used on DVDs
Duration                                 : 2 h 18 min
Bit rate                                 : 7 161 b/s
Count of elements                        : 1464
Stream size                              : 7.10 MiB (0%)
Language                                 : Norwegian Bokmal
Default                                  : No
Forced                                   : No

Subtitle #13
ID                                       : 15
Format                                   : VobSub
Muxing mode                              : zlib
Codec ID                                 : S_VOBSUB
Codec ID/Info                            : Picture based subtitle format used on DVDs
Duration                                 : 2 h 18 min
Bit rate                                 : 7 344 b/s
Count of elements                        : 1462
Stream size                              : 7.28 MiB (0%)
Language                                 : Swedish
Default                                  : No
Forced                                   : No

Subtitle #14
ID                                       : 16
Format                                   : VobSub
Muxing mode                              : zlib
Codec ID                                 : S_VOBSUB
Codec ID/Info                            : Picture based subtitle format used on DVDs
Duration                                 : 2 h 18 min
Bit rate                                 : 5 365 b/s
Count of elements                        : 1490
Stream size                              : 5.32 MiB (0%)
Language                                 : Chinese
Default                                  : No
Forced                                   : No

Subtitle #15
ID                                       : 17
Format                                   : VobSub
Muxing mode                              : zlib
Codec ID                                 : S_VOBSUB
Codec ID/Info                            : Picture based subtitle format used on DVDs
Duration                                 : 2 h 18 min
Bit rate                                 : 6 621 b/s
Count of elements                        : 1467
Stream size                              : 6.56 MiB (0%)
Language                                 : Czech
Default                                  : No
Forced                                   : No

Subtitle #16
ID                                       : 18
Format                                   : VobSub
Muxing mode                              : zlib
Codec ID                                 : S_VOBSUB
Codec ID/Info                            : Picture based subtitle format used on DVDs
Duration                                 : 2 h 18 min
Bit rate                                 : 5 053 b/s
Count of elements                        : 1468
Stream size                              : 5.01 MiB (0%)
Language                                 : Chinese
Default                                  : No
Forced                                   : No

Subtitle #17
ID                                       : 19
Format                                   : VobSub
Muxing mode                              : zlib
Codec ID                                 : S_VOBSUB
Codec ID/Info                            : Picture based subtitle format used on DVDs
Duration                                 : 2 h 18 min
Bit rate                                 : 6 328 b/s
Count of elements                        : 1453
Stream size                              : 6.27 MiB (0%)
Language                                 : Polish
Default                                  : No
Forced                                   : No

Subtitle #18
ID                                       : 20
Format                                   : UTF-8
Codec ID                                 : S_TEXT/UTF8
Codec ID/Info                            : UTF-8 Plain Text
Duration                                 : 2 h 14 min
Bit rate                                 : 66 b/s
Count of elements                        : 1411
Stream size                              : 65.6 KiB (0%)
Language                                 : Arabic
Default                                  : No
Forced                                   : No

Subtitle #19
ID                                       : 21
Format                                   : UTF-8
Codec ID                                 : S_TEXT/UTF8
Codec ID/Info                            : UTF-8 Plain Text
Duration                                 : 2 h 13 min
Bit rate                                 : 73 b/s
Count of elements                        : 1592
Stream size                              : 71.5 KiB (0%)
Language                                 : Persian
Default                                  : No
Forced                                   : No

Subtitle #20
ID                                       : 22
Format                                   : UTF-8
Codec ID                                 : S_TEXT/UTF8
Codec ID/Info                            : UTF-8 Plain Text
Duration                                 : 2 h 20 min
Bit rate                                 : 103 b/s
Count of elements                        : 1472
Stream size                              : 106 KiB (0%)
Language                                 : Thai
Default                                  : No
Forced                                   : No

Subtitle #21
ID                                       : 23
Format                                   : UTF-8
Codec ID                                 : S_TEXT/UTF8
Codec ID/Info                            : UTF-8 Plain Text
Duration                                 : 2 h 13 min
Bit rate                                 : 65 b/s
Count of elements                        : 1522
Stream size                              : 63.5 KiB (0%)
Language                                 : Vietnamese
Default                                  : No
Forced                                   : No

Menu
00:00:00.000                             : en:Chapter 1
00:08:00.104                             : en:Chapter 2
00:11:31.982                             : en:Chapter 3
00:16:57.182                             : en:Chapter 4
00:21:09.643                             : en:Chapter 5
00:27:21.264                             : en:Chapter 6
00:33:03.356                             : en:Chapter 7
00:38:09.245                             : en:Chapter 8
00:42:29.129                             : en:Chapter 9
00:46:41.799                             : en:Chapter 10
00:54:14.334                             : en:Chapter 11
00:58:45.480                             : en:Chapter 12
01:04:55.266                             : en:Chapter 13
01:10:26.138                             : en:Chapter 14
01:16:28.250                             : en:Chapter 15
01:26:44.699                             : en:Chapter 16
01:32:06.938                             : en:Chapter 17
01:36:22.443                             : en:Chapter 18
01:41:53.148                             : en:Chapter 19
01:49:48.415                             : en:Chapter 20
01:53:45.610                             : en:Chapter 21
01:58:52.083                             : en:Chapter 22
02:07:20.132                             : en:Chapter 23
02:13:40.095                             : en:Chapter 24

Source Information
Release: Red.Sparrow.2018.2160p.BluRay.x265.10bit.SDR.DTS-HD.MA.TrueHD.7.1.Atmos-SWTYBLZ.mkv (28.57 GBs)



UTR wrote:

Note From UTR
We have no issue with individuals posting or re-uploading our torrents on a platform we aren't on. However, if this is something you'd like to do, please do so in a 'as-is' format. We ask that you do not create a new torrent, include all descriptions you see above including the UTR logo, tags, notes and screenshots. If you'd like to become a permanent poster on a website we don't post to, feel free to get in contact with a UniTeam member.

If possible please donate: BTC 1QA5fum5AyXvWzdVCkQzUNvw3Ef15fHRaR


Category:Movies > HEVC/x265
Lang:English  English
Total Size:1.82 GB
Info Hash:da8425eadaa5a585095f031dc4ca27a8161d25fa
Added By:UTR
Date Added:06-06-2018 15:18:00

Files

File List: 
 File Size
Red Sparrow 2018 (1080p x265 10bit S98 Joy).mkv1.82 GB



Loading...
Comments

There are currently no comments. Be the first one to write something !

Disclaimer: None of the files shown here are actually hosted or transmitted by this server. The links are provided solely by this site's users. The site moderation is also a service provided by the site's users. The administrator of this site (ettv.tv) cannot be held responsible for what its users post, or any other actions of its users. You may not use this site to distribute or download any material when you do not have the legal rights to do so. It is your own responsibility to adhere to these terms.