the secret life of pets Arrow.S06E02.HDTV.x264 LOL ettv Lost in Space 2018 s01e07 The walking dead supergirl s03e21 big bang theory español the crossing The Flash hereditary fear the walking dead s04e07 fear the walking dead S.W.A.T.2017.S01E01.HDTV.x264 KILLERS ettv Ettv masterchef vikings ddr wwe raw street outlaws Legion the expanse westworld s02 star trek discovery español hindi young sheldon ethd 2018 ita krypton Supernatural wwe Brooklyn Nine Nine Gotham arrow español Seal Team Masterchef Australia Blindspot Survivor elementary quantico black panther judge judy S22 Avengers Infinity War etrg italian westworld arrow dtone westworld s02e07 last week tonight deadpool colony tomb raider 2018 killing eve avengers infinity war 2018 deadpool 2 family guy supergirl billions silicon valley tomb raider 13 reasons why evo the 100 etmovies fgt lucifer the originals more s12e13 handmaids tale into the badlands READY PLAYER ONE 
Warning! Use a VPN When Downloading Torrents!
Your IP Address is 172.81.144.194. Location is United States
Your Internet Provider is tracking your torrent activity! Hide your IP ADDRESS with a VPN!
We strongly recommend using Trust.Zone VPN to anonymize your torrenting. It's FREE!
Get VPN Now for FREE!
ETTV Recommended TV Shows
The.100.S05E06.WEBRip.x264-PBS[ettv] torrent
Carter.S01E04.HDTV.x264-aAF[ettv] torrent
Legion.S02E10.HDTV.x264-SVA[ettv] torrent
Animal.Kingdom.US.S03E02.WEBRip.x264-TBS[ettv] torrent

ETTV Recommended Xvid
Chapter.and.Verse.2017.HDRip.XViD-ETRG torrent
How.to.Talk.to.Girls.at.Parties.2017.BRRip.XViD-ETRG torrent
The.Rake.2018.HDRip.XViD-ETRG torrent
Unsane.2018.BRRip.XViD-ETRG torrent

ETTV Recommended HD
Freak.Show.2017.BluRay.1080p.x264.DTS-HD.MA5.1-DTOne torrent
Thoroughbreds.2017.Multi.BluRay.1080p.x264.DTS-HD.MA5.1-DTOne torrent
Jurassic Park III 2001 UHD 2160p Blu-ray HDR Multi DTS-X 7.1 -DTOne torrent
Star.Wars.4K77.2160p.UHD.no-DNR.35mm.x265-v1.0 [TN1] -DTOne torrent

ETTV Recommended Cam
Breaking in 2018 HDCAM ENG X264-THAN0S torrent
Kings 2018 HDCAM ENG X264-THAN0S torrent
Solo A Star Wars Story 2018 NEW HDTS XViD.AC3-ETRG torrent
Deadpool 2 2018 HD-TS.XViD.AC3-ETRG torrent

ETTV Recommended Foreign
Veer (Vivegam) (2018) HDRip x264 (Hindi-Telugu-Tamil)  - DTOne torrent
Sethupathi (2017) 720p UntoucheD WEB HD - AVC - AAC - E-Subs - DTOne Exclusive torrent
Missing.(2018).1-3.Web.Rip.x264.AC3.ESub-DTOne.Exclusive torrent
Indu Sarkar 2017 1080p WEB-DL AVC AAC 2.0 -DTOne ExCluSive torrent

Social

Loading...

Download Torrent "Quantico S03E04 (1080p AMZN WEB-DL x265 HEVC 10bit AC3 5.1 Qman) [UTR]"

IMDB Details
Description:

N/A

Genre:

N/A

Download Torrent (Magnet)
Download Torrent (File)
Seeds: 2
Leechers: 11
Completed: 292 
Last Checked: 30-05-2018 16:12:12


Loading...
Details
Title:Quantico S03E04 (1080p AMZN WEB-DL x265 HEVC 10bit AC3 5.1 Qman) [UTR]
Description:





Media Information
General
Format                                   : Matroska
Format version                           : Version 4 / Version 2
File size                                : 1.05 GiB
Duration                                 : 43 min 3 s
Overall bit rate                         : 3 485 kb/s
Encoded date                             : UTC 2018-05-29 04:31:37
Writing application                      : mkvmerge v23.0.0 ('The Bride Said No') 64-bit
Writing library                          : libebml v1.3.6 + libmatroska v1.4.9

Video
ID                                       : 1
Format                                   : HEVC
Format/Info                              : High Efficiency Video Coding
Format profile                           : Main [email protected]@Main
Codec ID                                 : V_MPEGH/ISO/HEVC
Duration                                 : 43 min 3 s
Bit rate                                 : 2 843 kb/s
Width                                    : 1 920 pixels
Height                                   : 1 080 pixels
Display aspect ratio                     : 16:9
Frame rate mode                          : Constant
Frame rate                               : 23.976 (24000/1001) FPS
Color space                              : YUV
Chroma subsampling                       : 4:2:0
Bit depth                                : 10 bits
Bits/(Pixel*Frame)                       : 0.057
Stream size                              : 875 MiB (82%)
Writing library                          : x265 2.8+3-450421921079:[Windows][MSVC 1914][64 bit] 10bit
Encoding settings                        : cpuid=1111039 / frame-threads=2 / numa-pools=4 / wpp / no-pmode / no-pme / no-psnr / no-ssim / log-level=2 / input-csp=1 / input-res=1920x1080 / interlace=0 / total-frames=61936 / level-idc=0 / high-tier=1 / uhd-bd=0 / ref=4 / no-allow-non-conformance / no-repeat-headers / annexb / no-aud / no-hrd / info / hash=0 / no-temporal-layers / open-gop / min-keyint=23 / keyint=250 / gop-lookahead=0 / bframes=8 / b-adapt=2 / b-pyramid / bframe-bias=0 / rc-lookahead=25 / lookahead-slices=4 / scenecut=40 / radl=0 / no-intra-refresh / ctu=64 / min-cu-size=8 / rect / no-amp / max-tu-size=32 / tu-inter-depth=1 / tu-intra-depth=1 / limit-tu=0 / rdoq-level=2 / dynamic-rd=0.00 / no-ssim-rd / signhide / no-tskip / nr-intra=0 / nr-inter=0 / no-constrained-intra / strong-intra-smoothing / max-merge=3 / limit-refs=3 / limit-modes / me=3 / subme=3 / merange=57 / temporal-mvp / weightp / no-weightb / no-analyze-src-pics / deblock=0:0 / sao / no-sao-non-deblock / rd=4 / no-early-skip / rskip / no-fast-intra / no-tskip-fast / no-cu-lossless / no-b-intra / no-splitrd-skip / rdpenalty=0 / psy-rd=2.00 / psy-rdoq=2.00 / no-rd-refine / no-lossless / cbqpoffs=0 / crqpoffs=0 / rc=crf / crf=21.5 / qcomp=0.60 / qpstep=4 / stats-write=0 / stats-read=0 / ipratio=1.40 / pbratio=1.30 / aq-mode=2 / aq-strength=1.00 / cutree / zone-count=0 / no-strict-cbr / qg-size=32 / no-rc-grain / qpmax=69 / qpmin=0 / no-const-vbv / sar=0 / overscan=0 / videoformat=5 / range=0 / colorprim=2 / transfer=2 / colormatrix=2 / chromaloc=0 / display-window=0 / max-cll=0,0 / min-luma=0 / max-luma=1023 / log2-max-poc-lsb=8 / vui-timing-info / vui-hrd-info / slices=1 / no-opt-qp-pps / no-opt-ref-list-length-pps / no-multi-pass-opt-rps / scenecut-bias=0.05 / no-opt-cu-delta-qp / no-aq-motion / no-hdr / no-hdr-opt / no-dhdr10-opt / no-idr-recovery-sei / analysis-reuse-level=5 / scale-factor=0 / refine-intra=0 / refine-inter=0 / refine-mv=0 / no-limit-sao / ctu-info=0 / no-lowpass-dct / refine-mv-type=0 / copy-pic=1 / max-ausize-factor=1.0 / no-dynamic-refine / no-single-sei
Language                                 : English
Default                                  : Yes
Forced                                   : No

Audio
ID                                       : 2
Format                                   : E-AC-3
Format/Info                              : Enhanced Audio Coding 3
Format settings, Endianness              : Big
Codec ID                                 : A_EAC3
Duration                                 : 43 min 3 s
Bit rate mode                            : Constant
Bit rate                                 : 640 kb/s
Channel(s)                               : 6 channels
Channel positions                        : Front: L C R, Side: L R, LFE
Sampling rate                            : 48.0 kHz
Frame rate                               : 187.500 FPS (256 spf)
Compression mode                         : Lossy
Stream size                              : 197 MiB (18%)
Language                                 : English
Default                                  : Yes
Forced                                   : No

Subtitle
ID                                       : 3
Format                                   : UTF-8
Codec ID                                 : S_TEXT/UTF8
Codec ID/Info                            : UTF-8 Plain Text
Duration                                 : 42 min 52 s
Bit rate                                 : 69 b/s
Count of elements                        : 771
Stream size                              : 21.8 KiB (0%)
Language                                 : English
Default                                  : Yes
Forced                                   : No


Source InformationRelease: 
Unknown Source/NO-GROUP



UTR wrote:

Note From UTR
We have no issue with individuals posting or re-uploading our torrents on a platform we aren't on. However, if this is something you'd like to do, please do so in a 'as-is' format. We ask that you do not create a new torrent, include all descriptions you see above including the UTR logo, tags, notes and screenshots. If you'd like to become a permanent poster on a website we don't post to, feel free to get in contact with a UniTeam member.

If possible please donate: BTC 1QA5fum5AyXvWzdVCkQzUNvw3Ef15fHRaR


Category:TV > HEVC/x265
Lang:English  English
Total Size:1.05 GB
Info Hash:c22c83088623ca2ff3aaffeeaf938119205b0499
Added By:UTR
Date Added:30-05-2018 16:12:07

Files

File List: 
 File Size
Quantico.S03E04.Spy.Games.1080p.AMZN.WEB-DL.x265.10bit.EAC3.6.0-[UTR].mkv1.05 GB



Loading...
Comments

There are currently no comments. Be the first one to write something !

Disclaimer: None of the files shown here are actually hosted or transmitted by this server. The links are provided solely by this site's users. The site moderation is also a service provided by the site's users. The administrator of this site (ettv.tv) cannot be held responsible for what its users post, or any other actions of its users. You may not use this site to distribute or download any material when you do not have the legal rights to do so. It is your own responsibility to adhere to these terms.