s.w.a.t.2017.s01e01.hdtv.x264 killers ettv rampage ettv billions family guy Red Sparrow Elizabeth Bear legion humans dtone more s12e13 ddr 13 reasons why gotham fgt Arrow evo masterchef avengers infinity war 2018 archer atomic blonde rus Westworld Dtone etmovies the handmaids tale sense8 Colony SEAL Team the originals expanse IMPOSTERS easyBCD tomb raider judge judy S22 jurassic world infinity war black panther the 100 lucifer The expanse supergirl Elementary The walking dead etrg survivor avengers infinity war Brooklyn Nine Nine Into The Badlands deadpool 2 ethd 2018 ITA Ready Player One mr robot en español Handmaid hindi Arrow.S06E02.HDTV.x264 LOL ettv the flash the secret life of pets the expanse s03e09 arrow español Six Lost in Space 2018 s01e07 big bang theory español QUANTICO star trek discovery español Krypton hereditary 
Warning! Use a VPN When Downloading Torrents!
Your IP Address is 172.81.144.194. Location is United States
Your Internet Provider is tracking your torrent activity! Hide your IP ADDRESS with a VPN!
We strongly recommend using Trust.Zone VPN to anonymize your torrenting. It's FREE!
Get VPN Now for FREE!
ETTV Recommended TV Shows
Marvels.Cloak.and.Dagger.S01E01.WEB.x264-TBS[ettv] torrent
Nashville.2012.S06E09.WEB.x264-TBS[ettv] torrent
Sense8.S02E12.WEB.x264-STRiFE[ettv] torrent
Condor.S01E01.WEBRip.x264-PBS[ettv] torrent

ETTV Recommended Xvid
Pacific.Rim.Uprising.2018.BRRip.XViD-ETRG torrent
211 2018 HDRip.XViD-ETRG torrent
2036.Origin.Unknown.2018.HDRip.XviD.AC3-EVO torrent
Zoo.2017.HDRip.XviD.AC3-EVO[EtMovies] torrent

ETTV Recommended HD
Pacific.Rim.Uprising.2018.Multi.1080p.BluRay.x264.Atmos.TrueHD.7.1-DTOne torrent
Escape.Plan.2013.Multi.UHD.2160p.x265.HDR.Atmos.7.1-DTOne torrent
The.Hurricane.Heist.2018.2160p.UHD.BluRay.x265.HDR.Atmos 7.1-DTOne torrent
Star.Wars.The.Last.Jedi.2017.Multi.UHD.BluRay.2160p.x265.HDR.-Atmos.7.1-DTOne torrent

ETTV Recommended Cam
Deadpool 2 2018 HD-TS.XViD.AC3-ETRG torrent
Rampage 2018 NEW HD-TS X264-24HD torrent
Jurassic World Fallen Kingdom 2018 720p HDCAM V.2 X264-24HD torrent
Oceans.8.2018.CAM.X264-CaixistaEstupido torrent

ETTV Recommended Foreign
Kaali (2018) [TAMIL - 720p - WEB HDRip - x264 - DD 5.1 - ESub - 2GB] - MAZE torrent
Blame.2017.1080p.BluRay.x264-GHOULS[EtHD] torrent
October.2018.1080p.WEB-DL.H264.AAC2.0.ESub - DTOne torrent
Bharat Ane Nenu.2018.REPACK.1080p.WEB-DL.H264.AAC2.0.ESub - DTOne torrent

Social

Loading...

Download Torrent "Paper Moon (1973) + Extras (1080p BluRay x265 HEVC 10bit AAC 2.0 r00t) [QxR..."

IMDB Details
Description:

During the Great Depression, a con man finds himself saddled with a young girl who may or may not be his daughter, and the two forge an unlikely partnership.

Genre:

Comedy, Crime, Drama

Download Torrent (Magnet)
Download Torrent (File)
Seeds: 117
Leechers: 68
Completed: 454 
Last Checked: 09-06-2018 07:11:23


Loading...
Details
Title:Paper Moon (1973) + Extras (1080p BluRay x265 HEVC 10bit AAC 2.0 r00t) [QxR...
Description:


Note from Encoder:
Encoded with 2-Pass at 5,000 kb/s, commentary and English subs included. The source disc has 2:30.149 of blank video and test pattern before the main feature starts, this has been cut from the file. This may cause you difficulty syncing outside subtitles or audio but the included tracks are properly synced.



Encode Screenshots (Click for full quality)













Media Information
General
Format                                   : Matroska
Format version                           : Version 4 / Version 2
File size                                : 3.94 GiB
Duration                                 : 1 h 46 min
Overall bit rate                         : 5 312 kb/s
Movie name                               : PAPER MOON
Encoded date                             : UTC 2018-06-07 19:31:34
Writing application                      : mkvmerge v23.0.0 ('The Bride Said No') 64-bit
Writing library                          : libebml v1.3.6 + libmatroska v1.4.9
Cover                                    : Yes
Attachments                              : cover.jpg
Writing frontend                         : StaxRip v1.7.0.6

Video
ID                                       : 1
Format                                   : HEVC
Format/Info                              : High Efficiency Video Coding
Format profile                           : Main [email protected]@Main
Codec ID                                 : V_MPEGH/ISO/HEVC
Duration                                 : 1 h 46 min
Bit rate                                 : 5 117 kb/s
Width                                    : 1 920 pixels
Height                                   : 1 080 pixels
Display aspect ratio                     : 16:9
Frame rate mode                          : Constant
Frame rate                               : 23.976 (24000/1001) FPS
Color space                              : YUV
Chroma subsampling                       : 4:2:0
Bit depth                                : 10 bits
Bits/(Pixel*Frame)                       : 0.103
Stream size                              : 3.79 GiB (96%)
Writing library                          : x265 2.8+3-450421921079:[Windows][MSVC 1914][64 bit] 10bit
Encoding settings                        : cpuid=1111039 / frame-threads=2 / numa-pools=4 / wpp / no-pmode / no-pme / no-psnr / no-ssim / log-level=2 / input-csp=1 / input-res=1920x1080 / interlace=0 / total-frames=156239 / level-idc=0 / high-tier=1 / uhd-bd=0 / ref=4 / no-allow-non-conformance / no-repeat-headers / annexb / no-aud / no-hrd / info / hash=0 / no-temporal-layers / open-gop / min-keyint=23 / keyint=250 / gop-lookahead=0 / bframes=4 / b-adapt=2 / b-pyramid / bframe-bias=0 / rc-lookahead=25 / lookahead-slices=4 / scenecut=40 / radl=0 / no-intra-refresh / ctu=64 / min-cu-size=8 / no-rect / no-amp / max-tu-size=32 / tu-inter-depth=1 / tu-intra-depth=1 / limit-tu=0 / rdoq-level=2 / dynamic-rd=0.00 / no-ssim-rd / signhide / no-tskip / nr-intra=0 / nr-inter=0 / no-constrained-intra / no-strong-intra-smoothing / max-merge=3 / limit-refs=3 / limit-modes / me=3 / subme=3 / merange=57 / temporal-mvp / weightp / no-weightb / no-analyze-src-pics / deblock=0:0 / no-sao / no-sao-non-deblock / rd=4 / no-early-skip / no-rskip / no-fast-intra / no-tskip-fast / no-cu-lossless / no-b-intra / no-splitrd-skip / rdpenalty=0 / psy-rd=2.00 / psy-rdoq=1.00 / no-rd-refine / no-lossless / cbqpoffs=0 / crqpoffs=0 / rc=abr / bitrate=5000 / qcomp=0.60 / qpstep=4 / stats-write=0 / stats-read=2 / cplxblur=20.0 / qblur=0.5 / ipratio=1.40 / pbratio=1.30 / aq-mode=3 / aq-strength=1.00 / cutree / zone-count=0 / no-strict-cbr / qg-size=32 / no-rc-grain / qpmax=69 / qpmin=0 / no-const-vbv / sar=0 / overscan=0 / videoformat=5 / range=0 / colorprim=2 / transfer=2 / colormatrix=2 / chromaloc=0 / display-window=0 / max-cll=0,0 / min-luma=0 / max-luma=1023 / log2-max-poc-lsb=8 / vui-timing-info / vui-hrd-info / slices=1 / no-opt-qp-pps / no-opt-ref-list-length-pps / no-multi-pass-opt-rps / scenecut-bias=0.05 / no-opt-cu-delta-qp / no-aq-motion / no-hdr / no-hdr-opt / no-dhdr10-opt / no-idr-recovery-sei / analysis-reuse-level=5 / scale-factor=0 / refine-intra=0 / refine-inter=0 / refine-mv=0 / no-limit-sao / ctu-info=0 / no-lowpass-dct / refine-mv-type=0 / copy-pic=1 / max-ausize-factor=1.0 / no-dynamic-refine / no-single-sei
Default                                  : Yes
Forced                                   : No

Audio #1
ID                                       : 2
Format                                   : AAC
Format/Info                              : Advanced Audio Codec
Format profile                           : LC
Codec ID                                 : A_AAC
Duration                                 : 1 h 46 min
Bit rate                                 : 100 kb/s
Channel(s)                               : 2 channels
Channel positions                        : Front: L R
Sampling rate                            : 48.0 kHz
Frame rate                               : 46.875 FPS (1024 spf)
Compression mode                         : Lossy
Delay relative to video                  : 14 ms
Stream size                              : 76.1 MiB (2%)
Language                                 : English
Default                                  : Yes
Forced                                   : No

Audio #2
ID                                       : 3
Format                                   : AAC
Format/Info                              : Advanced Audio Codec
Format profile                           : HE-AAC / LC
Codec ID                                 : A_AAC
Duration                                 : 1 h 46 min
Bit rate                                 : 80.0 kb/s
Channel(s)                               : 2 channels
Channel positions                        : Front: L R
Sampling rate                            : 48.0 kHz / 24.0 kHz
Frame rate                               : 23.438 FPS (1024 spf)
Compression mode                         : Lossy
Delay relative to video                  : 34 ms
Stream size                              : 60.7 MiB (2%)
Title                                    : Commentary
Language                                 : English
Default                                  : No
Forced                                   : No

Subtitle
ID                                       : 4
Format                                   : PGS
Muxing mode                              : zlib
Codec ID                                 : S_HDMV/PGS
Codec ID/Info                            : Picture based subtitle format used on BDs/HD-DVDs
Duration                                 : 1 h 41 min
Bit rate                                 : 44.4 kb/s
Count of elements                        : 3036
Stream size                              : 32.3 MiB (1%)
Language                                 : English
Default                                  : No
Forced                                   : No

Menu
00:00:00.000                             : en:Chapter 00
00:00:01.918                             : en:Chapter 01
00:09:20.184                             : en:Chapter 02
00:19:09.690                             : en:Chapter 03
00:29:27.724                             : en:Chapter 04
00:39:18.773                             : en:Chapter 05
00:49:32.386                             : en:Chapter 06
00:59:05.625                             : en:Chapter 07
01:09:53.981                             : en:Chapter 08
01:20:44.381                             : en:Chapter 09
01:30:06.484                             : en:Chapter 10

Source Information
Release : Paper Moon [1973] / BD50 / m2ts / Blu-ray / 1080p / Masters of Cinema



Note from QxR:
Whilst we are happy for our releases to be re-posted on a platform we aren't on, please do so in an 'as-is' format. We ask that you do not create a new torrent, include all descriptions you see above including the QxR logo, tags, notes and screenshots. If you'd like to become a permanent poster on a website we don't post to, feel free to get in contact with a QxR member.
Category:Movies > HEVC/x265
Lang:English  English
Total Size:4.41 GB
Info Hash:52ec0b24e4e9455da9d50ec630d294a8644c5d11
Added By:QxR
Date Added:09-06-2018 07:11:19

Files

File List: 
 File Size
Featurettes/Asking For the Moon.mkv233 MB
Featurettes/Getting the Moon.mkv54 MB
Featurettes/The Next Picture Show.mkv196 MB
Paper Moon (1973) (1080p BluRay x265 r00t).mkv3.94 GB



Loading...
Comments

There are currently no comments. Be the first one to write something !

Disclaimer: None of the files shown here are actually hosted or transmitted by this server. The links are provided solely by this site's users. The site moderation is also a service provided by the site's users. The administrator of this site (ettv.tv) cannot be held responsible for what its users post, or any other actions of its users. You may not use this site to distribute or download any material when you do not have the legal rights to do so. It is your own responsibility to adhere to these terms.