avengers infinity war 2018 hereditary Colony Lost in Space 2018 s01e07 deadpool 2 tomb raider italian ddr JARUSHKA ROSS avengers infinity war carter the 100 billions the expanse Arrow.S06E02.HDTV.x264 LOL ettv tomb raider 2018 Elementary black panther talent s13e02 Brooklyn Nine Nine 13 reasons why Supergirl S03E21 READY PLAYER ONE dtone the flash doug syed street outlaws 2018 ita Legion s02e10 wwe westworld supergirl masterchef australia animal kingdom fgt the secret life of pets more s12e13 masterchef SAVANNAH GOLD atomic blonde rus Supernatural Survivor etrg lucifer family guy big bang theory español the handmaids tale NATALIE HECK evo Hindi fear the walking dead etmovies Into The Badlands westworld s02 ettv Seal Team The originals arrow español The 100 S05E06 Gotham ethd The walking dead westworld s02e07 handmaids tale QUANTICO krypton legion star trek discovery español Deadpool s.w.a.t.2017.s01e01.hdtv.x264 killers ettv  judge judy S22 
Warning! Use a VPN When Downloading Torrents!
Your IP Address is 172.81.144.194. Location is United States
Your Internet Provider is tracking your torrent activity! Hide your IP ADDRESS with a VPN!
We strongly recommend using Trust.Zone VPN to anonymize your torrenting. It's FREE!
Get VPN Now for FREE!
ETTV Recommended TV Shows
The.Originals.S05E07.HDTV.x264-KILLERS[ettv] torrent
The.Expanse.S03E09.HDTV.x264-LucidTV[ettv] torrent
Colony.S03E06.HDTV.x264-SVA[ettv] torrent
Impulse.S01.WEBRip.x264-PBS[ettv] torrent

ETTV Recommended Xvid
Chapter.and.Verse.2017.HDRip.XViD-ETRG torrent
How.to.Talk.to.Girls.at.Parties.2017.BRRip.XViD-ETRG torrent
The.Rake.2018.HDRip.XViD-ETRG torrent
Unsane.2018.BRRip.XViD-ETRG torrent

ETTV Recommended HD
Freak.Show.2017.BluRay.1080p.x264.DTS-HD.MA5.1-DTOne torrent
Thoroughbreds.2017.Multi.BluRay.1080p.x264.DTS-HD.MA5.1-DTOne torrent
Jurassic Park III 2001 UHD 2160p Blu-ray HDR Multi DTS-X 7.1 -DTOne torrent
Star.Wars.4K77.2160p.UHD.no-DNR.35mm.x265-v1.0 [TN1] -DTOne torrent

ETTV Recommended Cam
Breaking in 2018 HDCAM ENG X264-THAN0S torrent
Kings 2018 HDCAM ENG X264-THAN0S torrent
Solo A Star Wars Story 2018 NEW HDTS XViD.AC3-ETRG torrent
Deadpool 2 2018 HD-TS.XViD.AC3-ETRG torrent

ETTV Recommended Foreign
Veer (Vivegam) (2018) HDRip x264 (Hindi-Telugu-Tamil)  - DTOne torrent
Sethupathi (2017) 720p UntoucheD WEB HD - AVC - AAC - E-Subs - DTOne Exclusive torrent
Missing.(2018).1-3.Web.Rip.x264.AC3.ESub-DTOne.Exclusive torrent
Indu Sarkar 2017 1080p WEB-DL AVC AAC 2.0 -DTOne ExCluSive torrent

Social

Loading...

Download Torrent "Lucifer S03E24 (1080p WEBRip x265 HEVC 10bit AAC 5.1 Joy) [UTR]"

IMDB Details
Description:

N/A

Genre:

N/A

Download Torrent (Magnet)
Download Torrent (File)
Seeds: 18
Leechers: 10
Completed: 707 
Last Checked: 30-05-2018 16:07:09


Loading...
Details
Title:Lucifer S03E24 (1080p WEBRip x265 HEVC 10bit AAC 5.1 Joy) [UTR]
Description:





Media Information
General
Format                                   : Matroska
Format version                           : Version 4 / Version 2
File size                                : 444 MiB
Duration                                 : 43 min 40 s
Overall bit rate                         : 1 420 kb/s
Encoded date                             : UTC 2018-05-27 11:35:14
Writing application                      : mkvmerge v20.0.0 ('I Am The Sun') 64-bit
Writing library                          : libebml v1.3.5 + libmatroska v1.4.8
Writing frontend                         : StaxRip v1.7.0.6

Video
ID                                       : 1
Format                                   : HEVC
Format/Info                              : High Efficiency Video Coding
Format profile                           : Main [email protected]@Main
Codec ID                                 : V_MPEGH/ISO/HEVC
Duration                                 : 43 min 39 s
Bit rate                                 : 1 201 kb/s
Width                                    : 1 920 pixels
Height                                   : 1 080 pixels
Display aspect ratio                     : 16:9
Frame rate mode                          : Constant
Frame rate                               : 23.976 (24000/1001) FPS
Color space                              : YUV
Chroma subsampling                       : 4:2:0
Bit depth                                : 10 bits
Bits/(Pixel*Frame)                       : 0.024
Stream size                              : 375 MiB (85%)
Writing library                          : x265 2.7+2-22c127ff05d5:[Windows][MSVC 1900][64 bit] 10bit
Encoding settings                        : cpuid=1173503 / frame-threads=3 / numa-pools=8 / wpp / no-pmode / no-pme / no-psnr / ssim / log-level=2 / input-csp=1 / input-res=1920x1080 / interlace=0 / total-frames=62817 / level-idc=0 / high-tier=1 / uhd-bd=0 / ref=4 / no-allow-non-conformance / no-repeat-headers / annexb / no-aud / no-hrd / info / hash=0 / no-temporal-layers / open-gop / min-keyint=23 / keyint=250 / gop-lookahead=0 / bframes=4 / b-adapt=2 / b-pyramid / bframe-bias=0 / rc-lookahead=25 / lookahead-slices=4 / scenecut=40 / radl=0 / no-intra-refresh / ctu=64 / min-cu-size=8 / rect / no-amp / max-tu-size=32 / tu-inter-depth=1 / tu-intra-depth=1 / limit-tu=0 / rdoq-level=2 / dynamic-rd=0.00 / ssim-rd / signhide / no-tskip / nr-intra=0 / nr-inter=0 / no-constrained-intra / strong-intra-smoothing / max-merge=3 / limit-refs=3 / limit-modes / me=3 / subme=3 / merange=57 / temporal-mvp / weightp / weightb / no-analyze-src-pics / deblock=0:0 / sao / sao-non-deblock / rd=6 / no-early-skip / rskip / no-fast-intra / no-tskip-fast / no-cu-lossless / b-intra / no-splitrd-skip / rdpenalty=0 / psy-rd=5.00 / psy-rdoq=1.55 / no-rd-refine / no-lossless / cbqpoffs=0 / crqpoffs=0 / rc=abr / bitrate=1200 / qcomp=0.60 / qpstep=4 / stats-write=0 / stats-read=2 / cplxblur=20.0 / qblur=0.5 / ipratio=1.40 / pbratio=1.30 / aq-mode=3 / aq-strength=1.00 / cutree / zone-count=0 / no-strict-cbr / qg-size=32 / no-rc-grain / qpmax=69 / qpmin=0 / no-const-vbv / sar=0 / overscan=0 / videoformat=5 / range=0 / colorprim=2 / transfer=2 / colormatrix=2 / chromaloc=0 / display-window=0 / max-cll=0,0 / min-luma=0 / max-luma=1023 / log2-max-poc-lsb=8 / vui-timing-info / vui-hrd-info / slices=1 / no-opt-qp-pps / no-opt-ref-list-length-pps / multi-pass-opt-rps / scenecut-bias=0.05 / no-opt-cu-delta-qp / no-aq-motion / no-hdr / no-hdr-opt / no-dhdr10-opt / analysis-reuse-level=5 / scale-factor=0 / refine-intra=0 / refine-inter=0 / refine-mv=0 / limit-sao / ctu-info=0 / no-lowpass-dct / refine-mv-type=0 / copy-pic=1
Default                                  : Yes
Forced                                   : No

Audio
ID                                       : 2
Format                                   : AAC
Format/Info                              : Advanced Audio Codec
Format profile                           : HE-AACv2 / HE-AAC / LC
Codec ID                                 : A_AAC
Duration                                 : 43 min 39 s
Bit rate                                 : 217 kb/s
Channel(s)                               : 6 channels
Channel(s)_Original                      : 2 channels / 14 channels / 14 channels
Channel positions                        : Front: L R / Front: 10, Side: L R, LFE= 2 / Front: 10, Side: L R, LFE= 2
Sampling rate                            : 48.0 kHz / 48.0 kHz / 24.0 kHz
Frame rate                               : 23.438 FPS (1024 spf)
Compression mode                         : Lossy
Delay relative to video                  : 31 ms
Stream size                              : 67.9 MiB (15%)
Language                                 : English
Default                                  : Yes
Forced                                   : No

Subtitle #1
ID                                       : 3
Format                                   : UTF-8
Codec ID                                 : S_TEXT/UTF8
Codec ID/Info                            : UTF-8 Plain Text
Duration                                 : 42 min 55 s
Bit rate                                 : 77 b/s
Count of elements                        : 882
Stream size                              : 24.5 KiB (0%)
Language                                 : English
Default                                  : No
Forced                                   : No

Subtitle #2
ID                                       : 4
Format                                   : UTF-8
Codec ID                                 : S_TEXT/UTF8
Codec ID/Info                            : UTF-8 Plain Text
Duration                                 : 42 min 55 s
Bit rate                                 : 80 b/s
Count of elements                        : 941
Stream size                              : 25.4 KiB (0%)
Language                                 : English
Default                                  : No
Forced                                   : No

Menu
00:00:00.000                             : en:Previously On
00:00:53.000                             : en:Everyone tries to cope at the crime scene
00:04:47.000                             : en:Pierce turns to old contacts
00:06:53.000                             : en:Dan convinces Chloe and Lucifer of his findings
00:09:43.000                             : en:Title Sequence
00:09:50.000                             : en:Chloe, Lucifer, and Dan make a plan
00:12:14.000                             : en:Chloe, Lucifer, and Dan talk to a suspect
00:14:29.000                             : en:Maze makes it to Linda
00:15:12.000                             : en:Dan acts on a hunch
00:18:04.000                             : en:Dan asks Ella for a favor
00:20:59.000                             : en:Lucifer confronts Pierce
00:24:43.000                             : en:Chloe calls Pierce
00:27:31.000                             : en:Linda thanks Maze
00:29:48.000                             : en:Ella's faith waivers
00:33:29.000                             : en:Lucifer and Chloe look for John's sister
00:35:39.000                             : en:Chloe tries to protect Lucifer
00:38:31.000                             : en:Vengeance
00:40:01.000                             : en:A devil of my word
00:43:02.000                             : en:End Credits

Source Information
Release: Lucifer.S03E24.A.Devil.of.My.Word.1080p.AMZN.WEB-DL.DDP5.1.H.264-NTb (4.10 GBs)


UTR wrote:

Note From UTR
We have no issue with individuals posting or re-uploading our torrents on a platform we aren't on. However, if this is something you'd like to do, please do so in a 'as-is' format. We ask that you do not create a new torrent, include all descriptions you see above including the UTR logo, tags, notes and screenshots. If you'd like to become a permanent poster on a website we don't post to, feel free to get in contact with a UniTeam member.

If possible please donate: BTC 1QA5fum5AyXvWzdVCkQzUNvw3Ef15fHRaR


Category:TV > HEVC/x265
Lang:English  English
Total Size:444 MB
Info Hash:7b0316ddabd402109a1b17e1f56150cde2722c34
Added By:UTR
Date Added:30-05-2018 16:07:05

Files

File List: 
 File Size
Lucifer S03E24 A Devil of My Word (1080p x265 10bit S89 Joy).mkv444 MB



Loading...
Comments

There are currently no comments. Be the first one to write something !

Disclaimer: None of the files shown here are actually hosted or transmitted by this server. The links are provided solely by this site's users. The site moderation is also a service provided by the site's users. The administrator of this site (ettv.tv) cannot be held responsible for what its users post, or any other actions of its users. You may not use this site to distribute or download any material when you do not have the legal rights to do so. It is your own responsibility to adhere to these terms.