ufc 225 ready player one into the badlands S03E07 the flash last week tonight star trek discovery español the 100 easyBCD ddr Formula 1 etrg lucifer Lost in Space 2018 s01e07 quantico the crossing GOTHAM atomic blonde rus expanse deadpool 2 big bang theory español fear the walking dead 2018 ITA TAKEN Supergirl Into the badlands black panther judge judy S22 fgt Dtone the handmaids tale Good Witch hindi 13 reasons why sense8 westworld S02 ettv masterchef australia etmovies westworld nascar ghosted FAMILY GUY ONE STRANGE ROCK poldark dtone Billions avengers infinity war 2018 the originals more s12e13 Silicon valley homeland avengers infinity war Elizabeth Bear brooklyn nine nine legion fear the walking dead s04e08 arrow avengers infinity war ita elementary ice the walking dead colony masterchef Vikings ethd the expanse Hereditary evo westworld s02e08 survivor arrow español Jurassic World 
Warning! Use a VPN When Downloading Torrents!
Your IP Address is 172.81.144.194. Location is United States
Your Internet Provider is tracking your torrent activity! Hide your IP ADDRESS with a VPN!
We strongly recommend using Trust.Zone VPN to anonymize your torrenting. It's FREE!
Get VPN Now for FREE!
ETTV Recommended TV Shows
Picnic.at.Hanging.Rock.S01.WEBRip.x264-PBS[ettv] torrent
Supergirl.S03E22.HDTV.x264-SVA[ettv] torrent
Elementary.S06E07.HDTV.x264-LOL[ettv] torrent
MasterChef.Australia.S10E27.HDTV.x264-SPC[ettv] torrent

ETTV Recommended Xvid
Bodysnatch 2018 BRRip.XViD-ETRG torrent
Alien.Code.2018.HDRip.XViD-ETRG torrent
7 Days in Entebbe.2018.HDRip.XViD-ETRG torrent
Acrimony.2018.HDRip.XviD.AC3-EVO torrent

ETTV Recommended HD
The.Night.Eats.the.World.2018.Multi.Bluray.1080p.x264.DTS-HDMA.5.1-DTOne torrent
Unsane.2018.BluRay.1080p.x264.DTS-HD.MA5.1-DTOne torrent
7 Days in Entebbe.2018.1080p.WEB-DL.H264.AC3-EVO[EtHD] torrent
Acrimony 2018 1080p WEB-DL DD5 1 H264-CMRG[EtHD] torrent

ETTV Recommended Cam
Deadpool 2 2018 HD-TS.XViD.AC3-ETRG torrent
Rampage 2018 NEW HD-TS X264-24HD torrent
Jurassic World Fallen Kingdom 2018 720p HDCAM V.2 X264-24HD torrent
Oceans.8.2018.CAM.X264-CaixistaEstupido torrent

ETTV Recommended Foreign
October.2018.HDRip.XViD-ETRG torrent
Kaala.2018.DesipDVD Rip HEVC x265 AAC 2.0 -DTOne torrent
Badmaash (2018) 1080p - UntoucheD WEB HD - AVC - AAC - DTOne Exclusive.mp4 torrent
Baaghi 2 (2018) 1080p UntoucheD WEB HD - AVC - AAC - E-Subs - DTOne Exclusive torrent

Social

Loading...

Download Torrent "Lo chiamavano Jeeg Robot (2015), [DivX - Ita Ac3 - Sub NUIta]"

IMDB Details
Description:

tt3775086

Genre:

Action, Drama, Sci-Fi

Download Torrent (Magnet)
Download Torrent (File)
Seeds: 20
Leechers: 4
Completed: 4,257 
Last Checked: 25-05-2018 02:55:48


Loading...
Details
Title:Lo chiamavano Jeeg Robot (2015), [DivX - Ita Ac3 - Sub NUIta]
Description:
Lo chiamavano Jeeg Robot (2015), [DivX - Ita Ac3 - Sub NUIta] TNT Village

.: Release Originale :.

http://forum.tntvillage.scambioetico.org/index.php?showtopic=554375

.: Trama :.

Enzo Ceccotti non è nessuno, vive a Tor Bella Monaca e sbarca il lunario con piccoli furti sperando di non essere preso. Un giorno, proprio mentre scappa dalla polizia, si tuffa nel Tevere per nascondersi e cade per errore in un barile di materiale radioattivo. Ne uscirà completamente ricoperto di non si sa cosa, barcollante e mezzo morto. In compenso il giorno dopo però si risveglia dotato di forza e resistenza sovraumane. Mentre Enzo scopre cosa gli è successo e cerca di usare i poteri per fare soldi, a Roma c'è una vera lotta per il comando, alcuni clan provenienti da fuori stanno terrorizzando la città con attentati bombaroli e un piccolo pesce intenzionato a farsi strada minaccia la vicina di casa di Enzo, figlia di un suo amico morto da poco. La ragazza ora si è aggrappata a lui ed è così fissata con la serie animata Jeeg Robot da pensare che esista davvero. Tutto sta per esplodere, tutti hanno bisogno di un eroe.

.: Locandina :.



.: Crediti :.

Titolo originale: Lo chiamavano Jeeg Robot
Nazionalità: ITA
Anno: 2016
Genere: Drammatico
Regia: Gabriele Mainetti
Produzione: ITA
Distribuzione: Lucky Red
Data di uscita: 2016
Cast: Claudio Santamaria, Ilenia Pastorelli, Luca Marinelli
Durata: 113 min.

========================================

.: Dati tecnici del file :.

General
Complete name :L0 CHI4M4V4N0 J33G R0B07 Divx.avi
Format : AVI
Format/Info : Audio Video Interleave
File size : 1.53 GiB
Duration : 1 h 53 min
Overall bit rate : 1 939 kb/s
Writing library : VirtualDub build 16297/release

Video
ID : 0
Format : MPEG-4 Visual
Format settings, BVOP : No
Format settings, QPel : No
Format settings, GMC : No warppoints
Format settings, Matrix : Default (H.263)
Codec ID : DX50
Codec ID/Hint : DivX 5
Duration : 1 h 53 min
Bit rate : 1 737 kb/s
Nominal bit rate : 2 896 kb/s
Width : 656 pixels
Height : 272 pixels
Display aspect ratio : 2.40:1
Frame rate : 25.000 FPS
Color space : YUV
Chroma subsampling : 4:2:0
Bit depth : 8 bits
Scan type : Progressive
Compression mode : Lossy
Bits/(Pixel*Frame) : 0.389
Stream size : 1.37 GiB (90%)
Writing library : DivX 5.2.1 (DrDivX 106) (UTC 2004-09-08)

Audio
ID : 1
Format : AC-3
Format/Info : Audio Coding 3
Format profile : Dolby Digital
Mode extension : CM (complete main)
Format settings, Endianness : Big
Codec ID : 2000
Duration : 1 h 53 min
Bit rate mode : Constant
Bit rate : 192 kb/s
Channel(s) : 2 channels
Channel positions : Front: L R
Sampling rate : 48.0 kHz
Frame rate : 31.250 FPS (1536 spf)
Bit depth : 16 bits
Compression mode : Lossy
Stream size : 155 MiB (10%)
Alignment : Split accross interleaves
Interleave, duration : 40 ms (1.00 video frame)
Interleave, preload duration : 512 ms


Category:Movies > XviD
Lang:Italian  Italian
Total Size:1.54 GB
Info Hash:6ed99c5a6a68ac319a3bdd079bf21755cbee614e
Added By:Markus03
Date Added:25-05-2018 02:55:45

Files

File List: 
 File Size
L0 CHI4M4V4N0 J33G R0B07 Divx.avi1.53 GB
L0 CHI4M4V4N0 J33G R0B07 Divx.idx50.34 kB
L0 CHI4M4V4N0 J33G R0B07 Divx.sub4 MB



Loading...
Comments

There are currently no comments. Be the first one to write something !

Disclaimer: None of the files shown here are actually hosted or transmitted by this server. The links are provided solely by this site's users. The site moderation is also a service provided by the site's users. The administrator of this site (ettv.tv) cannot be held responsible for what its users post, or any other actions of its users. You may not use this site to distribute or download any material when you do not have the legal rights to do so. It is your own responsibility to adhere to these terms.