Arrow.S06E02.HDTV.x264 LOL ettv black panther Arrow 13 reasons why ddr six legion fear the walking dead elementary evo Motogp 2018 The walking dead killing eve deadpool last week tonight The Expanse into the badlands The 100 handmaids tale westworld s02e07 fgt britains s12e18 the flash tomb raider 2018 MasterChef tomb raider hereditary DTOne deadpool 2 westworld The Americans star trek discovery español colony westworld s02 Lost in Space 2018 s01e07 2018 ita Supernatural supergirl hindi big bang theory español lucifer family guy silicon valley judge judy S22 avengers infinity war 2018 Gotham arrow español S.W.A.T.2017.S01E01.HDTV.x264 KILLERS ettv more s12e13 seal team fear the walking dead s04e07 young sheldon Avengers Infinity war billions dtone quantico the secret life of pets Brooklyn Nine Nine etmovies instinct blindspot krypton masterchef australia ettv Survivor italian etrg ethd twitter the originals ready player one 
Warning! Use a VPN When Downloading Torrents!
Your IP Address is 172.81.144.194. Location is United States
Your Internet Provider is tracking your torrent activity! Hide your IP ADDRESS with a VPN!
We strongly recommend using Trust.Zone VPN to anonymize your torrenting. It's FREE!
Get VPN Now for FREE!
ETTV Recommended TV Shows
Westworld.S02E07.WEB.H264-DEFLATE[ettv] torrent
Elementary.S06E06.HDTV.x264-LOL[ettv] torrent
The.Crossing.S01E09.HDTV.x264-KILLERS[ettv] torrent
Supergirl.S03E21.HDTV.x264-SVA[ettv] torrent

ETTV Recommended Xvid
Oh.Lucy.2018.HDRip.XviD.AC3-EVO torrent
The.Open.Door.2017.HDRip.XviD.AC3-EVO torrent
Chapter.and.Verse.2017.HDRip.XViD-ETRG torrent
How.to.Talk.to.Girls.at.Parties.2017.BRRip.XViD-ETRG torrent

ETTV Recommended HD
The.Square.2017.Multi.Bluray.x264.DTS-HDMA.5.1-DTOne torrent
Tomb.Raider.2018.Multi.BluRay.1080p.x264.Atmos.7.1-DTOne torrent
The Foreigner 2017 Blu-ray 1080p x264 DTS-HDMA 5.1-DTOne torrent
Chapter.and.Verse.2017.720p.HDRip.X264.AAC-ETRG torrent

ETTV Recommended Cam
Breaking in 2018 HDCAM ENG X264-THAN0S torrent
Kings 2018 HDCAM ENG X264-THAN0S torrent
Solo A Star Wars Story 2018 NEW HDTS XViD.AC3-ETRG torrent
Deadpool 2 2018 NEW 720p HD-TC X264-CPG torrent

ETTV Recommended Foreign
Aksar.2.(2018).1-3.HDTv.Rip.x264.AC3-DTOne.Exclusive torrent
Veer (Vivegam) (2018) HDRip x264 (Hindi-Telugu-Tamil)  - DTOne torrent
Sethupathi (2017) 720p UntoucheD WEB HD - AVC - AAC - E-Subs - DTOne Exclusive torrent
Missing.(2018).1-3.Web.Rip.x264.AC3.ESub-DTOne.Exclusive torrent

Social

Loading...

Download Torrent "Impastor (2015) Season 1 S01 (1080p AMZN WEB-DL x265 HEVC 10bit AAC 2.0 Pan..."

IMDB Details
Description:

Buddy Dobbs (Michael Rosenbaum), a slacker on the run from a loan shark, steals a man's identity and ends up posing as a small town's new gay pastor.

Genre:

Comedy, Crime

Download Torrent (Magnet)
Download Torrent (File)
Seeds: 19
Leechers: 12
Completed: 276 
Last Checked: 02-06-2018 01:06:24


Loading...
Details
Title:Impastor (2015) Season 1 S01 (1080p AMZN WEB-DL x265 HEVC 10bit AAC 2.0 Pan...
Description:


Encode Screenshots (Click for full quality)







Media Information
General
Format                                   : Matroska
Format version                           : Version 4 / Version 2
File size                                : 465 MiB
Duration                                 : 23 min 10 s
Overall bit rate                         : 2 807 kb/s
Encoded date                             : UTC 2018-05-25 01:47:29
Writing application                      : mkvmerge v20.0.0 ('I Am The Sun') 64-bit
Writing library                          : libebml v1.3.5 + libmatroska v1.4.8
Writing frontend                         : StaxRip v1.7.0.6

Video
ID                                       : 1
Format                                   : HEVC
Format/Info                              : High Efficiency Video Coding
Format profile                           : Main [email protected]@Main
Codec ID                                 : V_MPEGH/ISO/HEVC
Duration                                 : 23 min 10 s
Bit rate                                 : 2 679 kb/s
Width                                    : 1 920 pixels
Height                                   : 1 080 pixels
Display aspect ratio                     : 16:9
Frame rate mode                          : Constant
Frame rate                               : 23.976 (24000/1001) FPS
Color space                              : YUV
Chroma subsampling                       : 4:2:0
Bit depth                                : 10 bits
Bits/(Pixel*Frame)                       : 0.054
Stream size                              : 444 MiB (95%)
Writing library                          : x265 2.7+337-54ff74d2b635:[Windows][GCC 7.3.0][64 bit] 10bit
Encoding settings                        : cpuid=1111039 / frame-threads=2 / numa-pools=4 / wpp / no-pmode / no-pme / no-psnr / no-ssim / log-level=2 / input-csp=1 / input-res=1920x1080 / interlace=0 / total-frames=33331 / level-idc=0 / high-tier=1 / uhd-bd=0 / ref=4 / no-allow-non-conformance / no-repeat-headers / annexb / no-aud / no-hrd / info / hash=0 / no-temporal-layers / open-gop / min-keyint=23 / keyint=250 / gop-lookahead=0 / bframes=8 / b-adapt=2 / b-pyramid / bframe-bias=0 / rc-lookahead=80 / lookahead-slices=4 / scenecut=40 / radl=0 / no-intra-refresh / ctu=64 / min-cu-size=8 / no-rect / no-amp / max-tu-size=32 / tu-inter-depth=1 / tu-intra-depth=1 / limit-tu=0 / rdoq-level=1 / dynamic-rd=0.00 / no-ssim-rd / signhide / no-tskip / nr-intra=0 / nr-inter=0 / no-constrained-intra / no-strong-intra-smoothing / max-merge=3 / limit-refs=3 / limit-modes / me=3 / subme=5 / merange=57 / temporal-mvp / weightp / weightb / no-analyze-src-pics / deblock=-1:-1 / no-sao / no-sao-non-deblock / rd=4 / no-early-skip / no-rskip / no-fast-intra / no-tskip-fast / no-cu-lossless / no-b-intra / no-splitrd-skip / rdpenalty=0 / psy-rd=1.00 / psy-rdoq=1.00 / no-rd-refine / no-lossless / cbqpoffs=0 / crqpoffs=0 / rc=crf / crf=21.0 / qcomp=0.60 / qpstep=4 / stats-write=0 / stats-read=0 / ipratio=1.40 / pbratio=1.30 / aq-mode=3 / aq-strength=1.00 / cutree / zone-count=0 / no-strict-cbr / qg-size=32 / no-rc-grain / qpmax=69 / qpmin=0 / no-const-vbv / sar=0 / overscan=0 / videoformat=5 / range=0 / colorprim=2 / transfer=2 / colormatrix=2 / chromaloc=0 / display-window=0 / max-cll=0,0 / min-luma=0 / max-luma=1023 / log2-max-poc-lsb=8 / vui-timing-info / vui-hrd-info / slices=1 / no-opt-qp-pps / no-opt-ref-list-length-pps / no-multi-pass-opt-rps / scenecut-bias=0.05 / no-opt-cu-delta-qp / no-aq-motion / no-hdr / no-hdr-opt / no-dhdr10-opt / no-idr-recovery-sei / analysis-reuse-level=5 / scale-factor=0 / refine-intra=0 / refine-inter=0 / refine-mv=0 / no-limit-sao / ctu-info=0 / no-lowpass-dct / refine-mv-type=0 / copy-pic=1 / max-ausize-factor=1.0 / no-dynamic-refine / no-single-sei
Default                                  : Yes
Forced                                   : No

Audio
ID                                       : 2
Format                                   : AAC
Format/Info                              : Advanced Audio Codec
Format profile                           : LC
Codec ID                                 : A_AAC
Duration                                 : 22 min 50 s
Bit rate                                 : 127 kb/s
Channel(s)                               : 2 channels
Channel positions                        : Front: L R
Sampling rate                            : 48.0 kHz
Frame rate                               : 46.875 FPS (1024 spf)
Compression mode                         : Lossy
Delay relative to video                  : 20 ms
Stream size                              : 20.8 MiB (4%)
Language                                 : English
Default                                  : Yes
Forced                                   : No

Subtitle
ID                                       : 3
Format                                   : UTF-8
Codec ID                                 : S_TEXT/UTF8
Codec ID/Info                            : UTF-8 Plain Text
Duration                                 : 22 min 45 s
Bit rate                                 : 97 b/s
Count of elements                        : 558
Stream size                              : 16.3 KiB (0%)
Default                                  : No
Forced                                   : No

Source Information
Release : Impastor.S01.1080p.AMZN.WEB-DL.DDP2.0.x264-TrollHD 



Note from QxR:
Whilst we are happy for our releases to be re-posted on a platform we aren't on, please do so in an 'as-is' format. We ask that you do not create a new torrent, include all descriptions you see above including the QxR logo, tags, notes and screenshots. If you'd like to become a permanent poster on a website we don't post to, feel free to get in contact with a QxR member.
Category:TV > HEVC/x265
Lang:English  English
Total Size:4.66 GB
Info Hash:b259ae4063e02aeba2eca9721d7e04e869944bfb
Added By:QxR
Date Added:02-06-2018 01:06:20

Files

File List: 
 File Size
Impastor (2015) - S01E01 - Genesis (1080p AMZN WEB-DL x265 Panda).mkv465 MB
Impastor (2015) - S01E02 - On the Third Day... (1080p AMZN WEB-DL x265 Panda).mkv486 MB
Impastor (2015) - S01E03 - Bird of Pray (1080p AMZN WEB-DL x265 Panda).mkv476 MB
Impastor (2015) - S01E04 - Thou Shalt Not Steal (1080p AMZN WEB-DL x265 Panda).mkv474 MB
Impastor (2015) - S01E05 - Ex-Communication (1080p AMZN WEB-DL x265 Panda).mkv414 MB
Impastor (2015) - S01E06 - Honor Thy Boyfriend's Father and Mother (1080p AMZN WEB-DL x265 Panda).mkv572 MB
Impastor (2015) - S01E07 - The Body of Kenny Compels You (1080p AMZN WEB-DL x265 Panda).mkv545 MB
Impastor (2015) - S01E08 - Bingo Tell It on the Mountain (1080p AMZN WEB-DL x265 Panda).mkv458 MB
Impastor (2015) - S01E09 - Flings & Arrows (1080p AMZN WEB-DL x265 Panda).mkv463 MB
Impastor (2015) - S01E10 - Exodus (1080p AMZN WEB-DL x265 Panda).mkv421 MB



Loading...
Comments

There are currently no comments. Be the first one to write something !

Disclaimer: None of the files shown here are actually hosted or transmitted by this server. The links are provided solely by this site's users. The site moderation is also a service provided by the site's users. The administrator of this site (ettv.tv) cannot be held responsible for what its users post, or any other actions of its users. You may not use this site to distribute or download any material when you do not have the legal rights to do so. It is your own responsibility to adhere to these terms.