ufc 225 ready player one into the badlands S03E07 the flash last week tonight star trek discovery español the 100 easyBCD ddr Formula 1 etrg lucifer Lost in Space 2018 s01e07 quantico the crossing GOTHAM atomic blonde rus expanse deadpool 2 big bang theory español fear the walking dead 2018 ITA TAKEN Supergirl Into the badlands black panther judge judy S22 fgt Dtone the handmaids tale Good Witch hindi 13 reasons why sense8 westworld S02 ettv masterchef australia etmovies westworld nascar ghosted FAMILY GUY ONE STRANGE ROCK poldark dtone Billions avengers infinity war 2018 the originals more s12e13 Silicon valley homeland avengers infinity war Elizabeth Bear brooklyn nine nine legion fear the walking dead s04e08 arrow avengers infinity war ita elementary ice the walking dead colony masterchef Vikings ethd the expanse Hereditary evo westworld s02e08 survivor arrow español Jurassic World 
Warning! Use a VPN When Downloading Torrents!
Your IP Address is 172.81.144.194. Location is United States
Your Internet Provider is tracking your torrent activity! Hide your IP ADDRESS with a VPN!
We strongly recommend using Trust.Zone VPN to anonymize your torrenting. It's FREE!
Get VPN Now for FREE!
ETTV Recommended TV Shows
Westworld.S02E08.WEB.H264-DEFLATE[ettv] torrent
Into.the.Badlands.S03E07.HDTV.x264-KILLERS[ettv] torrent
Elementary.S06E07.HDTV.x264-LOL[ettv] torrent
Supergirl.S03E22.HDTV.x264-SVA[ettv] torrent

ETTV Recommended Xvid
Ghostland.2018.BDRip.XviD.AC3-EVO torrent
Bodysnatch 2018 BRRip.XViD-ETRG torrent
Beyond The Sky.2018.HDRip.XViD-ETRG torrent
Alien.Code.2018.HDRip.XViD-ETRG torrent

ETTV Recommended HD
Terminator.2.Judgement.Day.1991.Multi.UHD.2160p.Theatrical.Cut.Blu-ray.x265.DTS-HD.MA.5.1-DTOne torrent
Terminator.Genesys.2015.Multi.UHD.2160p.Bluray.x265.HDR.Atmos.7.1-DTOne torrent
The.Night.Eats.the.World.2018.Multi.Bluray.1080p.x264.DTS-HDMA.5.1-DTOne torrent
Unsane.2018.BluRay.1080p.x264.DTS-HD.MA5.1-DTOne torrent

ETTV Recommended Cam
Deadpool 2 2018 HD-TS.XViD.AC3-ETRG torrent
Rampage 2018 NEW HD-TS X264-24HD torrent
Jurassic World Fallen Kingdom 2018 720p HDCAM V.2 X264-24HD torrent
Oceans.8.2018.CAM.X264-CaixistaEstupido torrent

ETTV Recommended Foreign
Blame.2017.1080p.BluRay.x264-GHOULS[EtHD] torrent
Bharat Ane Nenu.2018.REPACK.1080p.WEB-DL.H264.AAC2.0.ESub - DTOne torrent
October.2018.HDRip.XViD-ETRG torrent
Kaala.2018.DesipDVD Rip HEVC x265 AAC 2.0 -DTOne torrent

Social

Loading...

Download Torrent "Deadpool (2016) (2160p BluRay x265 HEVC 10bit AAC 7.1 Joy) [UTR]"

IMDB Details
Description:

A fast-talking mercenary with a morbid sense of humor is subjected to a rogue experiment that leaves him with accelerated healing powers and a quest for revenge.

Genre:

Action, Adventure, Comedy

Download Torrent (Magnet)
Download Torrent (File)
Seeds: 25
Leechers: 7
Completed: 468 
Last Checked: 10-06-2018 17:04:19


Loading...
Details
Title:Deadpool (2016) (2160p BluRay x265 HEVC 10bit AAC 7.1 Joy) [UTR]
Description:





Media Information
General
Format                                   : Matroska
Format version                           : Version 4 / Version 2
File size                                : 5.22 GiB
Duration                                 : 1 h 48 min
Overall bit rate                         : 6 873 kb/s
Movie name                               : Deadpool 2016  (1080p x265 10bit S92 Joy)[UTR]
Encoded date                             : UTC 2018-06-05 20:55:15
Writing application                      : mkvmerge v21.0.0 ('Tardigrades Will Inherit The Earth') 64-bit
Writing library                          : libebml v1.3.5 + libmatroska v1.4.8
Cover                                    : Yes
Attachments                              : cover.jpg
Writing frontend                         : StaxRip v1.7.0.3

Video
ID                                       : 1
Format                                   : HEVC
Format/Info                              : High Efficiency Video Coding
Format profile                           : Main [email protected]@Main
Codec ID                                 : V_MPEGH/ISO/HEVC
Duration                                 : 1 h 48 min
Bit rate                                 : 6 000 kb/s
Width                                    : 3 840 pixels
Height                                   : 1 600 pixels
Display aspect ratio                     : 2.40:1
Frame rate mode                          : Constant
Frame rate                               : 23.976 (24000/1001) FPS
Color space                              : YUV
Chroma subsampling                       : 4:2:0
Bit depth                                : 10 bits
Bits/(Pixel*Frame)                       : 0.041
Stream size                              : 4.53 GiB (87%)
Writing library                          : x265 2.7+2-22c127ff05d5:[Windows][MSVC 1900][64 bit] 10bit
Encoding settings                        : cpuid=1173503 / frame-threads=3 / numa-pools=8 / wpp / no-pmode / no-pme / no-psnr / ssim / log-level=2 / input-csp=1 / input-res=3840x1600 / interlace=0 / total-frames=155514 / level-idc=0 / high-tier=1 / uhd-bd=0 / ref=3 / no-allow-non-conformance / no-repeat-headers / annexb / no-aud / no-hrd / info / hash=0 / no-temporal-layers / open-gop / min-keyint=23 / keyint=250 / gop-lookahead=0 / bframes=4 / b-adapt=2 / b-pyramid / bframe-bias=0 / rc-lookahead=20 / lookahead-slices=8 / scenecut=40 / radl=0 / no-intra-refresh / ctu=64 / min-cu-size=8 / no-rect / no-amp / max-tu-size=32 / tu-inter-depth=1 / tu-intra-depth=1 / limit-tu=0 / rdoq-level=1 / dynamic-rd=0.00 / ssim-rd / signhide / no-tskip / nr-intra=0 / nr-inter=0 / no-constrained-intra / strong-intra-smoothing / max-merge=2 / limit-refs=3 / no-limit-modes / me=1 / subme=2 / merange=57 / temporal-mvp / weightp / weightb / no-analyze-src-pics / deblock=-3:-3 / sao / no-sao-non-deblock / rd=3 / no-early-skip / rskip / no-fast-intra / no-tskip-fast / no-cu-lossless / b-intra / no-splitrd-skip / rdpenalty=0 / psy-rd=0.00 / psy-rdoq=0.00 / no-rd-refine / no-lossless / cbqpoffs=0 / crqpoffs=0 / rc=abr / bitrate=6000 / qcomp=0.60 / qpstep=4 / stats-write=0 / stats-read=2 / cplxblur=20.0 / qblur=0.5 / ipratio=1.40 / pbratio=1.30 / aq-mode=2 / aq-strength=1.00 / cutree / zone-count=0 / no-strict-cbr / qg-size=32 / no-rc-grain / qpmax=69 / qpmin=0 / no-const-vbv / sar=0 / overscan=0 / videoformat=5 / range=1 / colorprim=2 / transfer=2 / colormatrix=2 / chromaloc=0 / display-window=0 / max-cll=0,0 / min-luma=0 / max-luma=1023 / log2-max-poc-lsb=8 / vui-timing-info / vui-hrd-info / slices=1 / no-opt-qp-pps / no-opt-ref-list-length-pps / no-multi-pass-opt-rps / scenecut-bias=0.05 / no-opt-cu-delta-qp / no-aq-motion / no-hdr / no-hdr-opt / no-dhdr10-opt / analysis-reuse-level=5 / scale-factor=0 / refine-intra=0 / refine-inter=0 / refine-mv=0 / limit-sao / ctu-info=0 / no-lowpass-dct / refine-mv-type=0 / copy-pic=1
Default                                  : Yes
Forced                                   : No
Color range                              : Full

Audio #1
ID                                       : 2
Format                                   : AAC
Format/Info                              : Advanced Audio Codec
Format profile                           : LC
Codec ID                                 : A_AAC
Duration                                 : 1 h 48 min
Bit rate                                 : 500 kb/s
Channel(s)                               : 7 channels
Channel(s)_Original                      : 8 channels
Channel positions                        : Front: L C R, Side: L R, Back: L R, LFE
Sampling rate                            : 48.0 kHz
Frame rate                               : 46.875 FPS (1024 spf)
Compression mode                         : Lossy
Delay relative to video                  : 9 ms
Stream size                              : 387 MiB (7%)
Language                                 : English
Default                                  : Yes
Forced                                   : No

Audio #2
ID                                       : 17
Format                                   : AAC
Format/Info                              : Advanced Audio Codec
Format profile                           : HE-AAC / LC
Codec ID                                 : A_AAC
Duration                                 : 1 h 48 min
Bit rate                                 : 80.5 kb/s
Channel(s)                               : 2 channels
Channel positions                        : Front: L R
Sampling rate                            : 48.0 kHz / 24.0 kHz
Frame rate                               : 23.438 FPS (1024 spf)
Compression mode                         : Lossy
Delay relative to video                  : 31 ms
Stream size                              : 62.2 MiB (1%)
Title                                    : French 2ch
Language                                 : French
Default                                  : No
Forced                                   : No

Audio #3
ID                                       : 18
Format                                   : AAC
Format/Info                              : Advanced Audio Codec
Format profile                           : HE-AAC / LC
Codec ID                                 : A_AAC
Duration                                 : 1 h 48 min
Bit rate                                 : 80.8 kb/s
Channel(s)                               : 2 channels
Channel positions                        : Front: L R
Sampling rate                            : 48.0 kHz / 24.0 kHz
Frame rate                               : 23.438 FPS (1024 spf)
Compression mode                         : Lossy
Delay relative to video                  : 31 ms
Stream size                              : 62.5 MiB (1%)
Title                                    : Spanish 2ch
Language                                 : Spanish
Default                                  : No
Forced                                   : No

Audio #4
ID                                       : 19
Format                                   : AAC
Format/Info                              : Advanced Audio Codec
Format profile                           : HE-AAC / LC
Codec ID                                 : A_AAC
Duration                                 : 1 h 48 min
Bit rate                                 : 50.8 kb/s
Channel(s)                               : 2 channels
Channel positions                        : Front: L R
Sampling rate                            : 48.0 kHz / 24.0 kHz
Frame rate                               : 23.438 FPS (1024 spf)
Compression mode                         : Lossy
Delay relative to video                  : 31 ms
Stream size                              : 39.3 MiB (1%)
Title                                    : Commentary w Ryan Renolds
Language                                 : English
Default                                  : No
Forced                                   : No

Audio #5
ID                                       : 20
Format                                   : AAC
Format/Info                              : Advanced Audio Codec
Format profile                           : HE-AAC / LC
Codec ID                                 : A_AAC
Duration                                 : 1 h 48 min
Bit rate                                 : 48.0 kb/s
Channel(s)                               : 2 channels
Channel positions                        : Front: L R
Sampling rate                            : 48.0 kHz / 24.0 kHz
Frame rate                               : 23.438 FPS (1024 spf)
Compression mode                         : Lossy
Delay relative to video                  : 31 ms
Stream size                              : 38.4 MiB (1%)
Title                                    : Commentary w Tim Miller
Language                                 : English
Default                                  : No
Forced                                   : No

Subtitle #1
ID                                       : 3
Format                                   : UTF-8
Codec ID                                 : S_TEXT/UTF8
Codec ID/Info                            : UTF-8 Plain Text
Duration                                 : 1 h 44 min
Bit rate                                 : 60 b/s
Count of elements                        : 1562
Stream size                              : 46.1 KiB (0%)
Language                                 : English
Default                                  : No
Forced                                   : No

Subtitle #2
ID                                       : 4
Format                                   : VobSub
Muxing mode                              : zlib
Codec ID                                 : S_VOBSUB
Codec ID/Info                            : Picture based subtitle format used on DVDs
Duration                                 : 1 h 47 min
Bit rate                                 : 12.1 kb/s
Count of elements                        : 1852
Stream size                              : 9.33 MiB (0%)
Language                                 : English
Default                                  : No
Forced                                   : No

Subtitle #3
ID                                       : 5
Format                                   : VobSub
Muxing mode                              : zlib
Codec ID                                 : S_VOBSUB
Codec ID/Info                            : Picture based subtitle format used on DVDs
Duration                                 : 1 h 45 min
Bit rate                                 : 7 876 b/s
Count of elements                        : 1373
Stream size                              : 5.92 MiB (0%)
Language                                 : French
Default                                  : No
Forced                                   : No

Subtitle #4
ID                                       : 6
Format                                   : VobSub
Muxing mode                              : zlib
Codec ID                                 : S_VOBSUB
Codec ID/Info                            : Picture based subtitle format used on DVDs
Duration                                 : 1 h 47 min
Bit rate                                 : 8 860 b/s
Count of elements                        : 1387
Stream size                              : 6.79 MiB (0%)
Language                                 : Spanish
Default                                  : No
Forced                                   : No

Subtitle #5
ID                                       : 7
Format                                   : VobSub
Muxing mode                              : zlib
Codec ID                                 : S_VOBSUB
Codec ID/Info                            : Picture based subtitle format used on DVDs
Duration                                 : 1 h 47 min
Bit rate                                 : 9 011 b/s
Count of elements                        : 1191
Stream size                              : 6.91 MiB (0%)
Language                                 : Danish
Default                                  : No
Forced                                   : No

Subtitle #6
ID                                       : 8
Format                                   : VobSub
Muxing mode                              : zlib
Codec ID                                 : S_VOBSUB
Codec ID/Info                            : Picture based subtitle format used on DVDs
Duration                                 : 1 h 47 min
Bit rate                                 : 8 335 b/s
Count of elements                        : 1238
Stream size                              : 6.39 MiB (0%)
Language                                 : Dutch
Default                                  : No
Forced                                   : No

Subtitle #7
ID                                       : 9
Format                                   : VobSub
Muxing mode                              : zlib
Codec ID                                 : S_VOBSUB
Codec ID/Info                            : Picture based subtitle format used on DVDs
Duration                                 : 1 h 47 min
Bit rate                                 : 8 197 b/s
Count of elements                        : 1400
Stream size                              : 6.28 MiB (0%)
Language                                 : Finnish
Default                                  : No
Forced                                   : No

Subtitle #8
ID                                       : 10
Format                                   : VobSub
Muxing mode                              : zlib
Codec ID                                 : S_VOBSUB
Codec ID/Info                            : Picture based subtitle format used on DVDs
Duration                                 : 1 h 47 min
Bit rate                                 : 9 430 b/s
Count of elements                        : 1375
Stream size                              : 7.23 MiB (0%)
Language                                 : German
Default                                  : No
Forced                                   : No

Subtitle #9
ID                                       : 11
Format                                   : VobSub
Muxing mode                              : zlib
Codec ID                                 : S_VOBSUB
Codec ID/Info                            : Picture based subtitle format used on DVDs
Duration                                 : 1 h 47 min
Bit rate                                 : 9 540 b/s
Count of elements                        : 1408
Stream size                              : 7.30 MiB (0%)
Language                                 : Italian
Default                                  : No
Forced                                   : No

Subtitle #10
ID                                       : 12
Format                                   : VobSub
Muxing mode                              : zlib
Codec ID                                 : S_VOBSUB
Codec ID/Info                            : Picture based subtitle format used on DVDs
Duration                                 : 1 h 47 min
Bit rate                                 : 9 419 b/s
Count of elements                        : 1406
Stream size                              : 7.22 MiB (0%)
Language                                 : Norwegian Bokmal
Default                                  : No
Forced                                   : No

Subtitle #11
ID                                       : 13
Format                                   : VobSub
Muxing mode                              : zlib
Codec ID                                 : S_VOBSUB
Codec ID/Info                            : Picture based subtitle format used on DVDs
Duration                                 : 1 h 47 min
Bit rate                                 : 9 129 b/s
Count of elements                        : 1401
Stream size                              : 7.00 MiB (0%)
Language                                 : Swedish
Default                                  : No
Forced                                   : No

Subtitle #12
ID                                       : 14
Format                                   : VobSub
Muxing mode                              : zlib
Codec ID                                 : S_VOBSUB
Codec ID/Info                            : Picture based subtitle format used on DVDs
Duration                                 : 1 h 47 min
Bit rate                                 : 6 175 b/s
Count of elements                        : 1450
Stream size                              : 4.74 MiB (0%)
Language                                 : Chinese
Default                                  : No
Forced                                   : No

Subtitle #13
ID                                       : 15
Format                                   : VobSub
Muxing mode                              : zlib
Codec ID                                 : S_VOBSUB
Codec ID/Info                            : Picture based subtitle format used on DVDs
Duration                                 : 1 h 47 min
Bit rate                                 : 6 234 b/s
Count of elements                        : 1510
Stream size                              : 4.78 MiB (0%)
Language                                 : Chinese
Default                                  : No
Forced                                   : No

Subtitle #14
ID                                       : 16
Format                                   : VobSub
Muxing mode                              : zlib
Codec ID                                 : S_VOBSUB
Codec ID/Info                            : Picture based subtitle format used on DVDs
Duration                                 : 1 s 911 ms
Bit rate                                 : 17.5 kb/s
Count of elements                        : 1
Stream size                              : 4.08 KiB (0%)
Language                                 : English
Default                                  : No
Forced                                   : No

Subtitle #15
ID                                       : 21
Format                                   : VobSub
Muxing mode                              : zlib
Codec ID                                 : S_VOBSUB
Codec ID/Info                            : Picture based subtitle format used on DVDs
Duration                                 : 1 h 48 min
Bit rate                                 : 23.3 kb/s
Count of elements                        : 2421
Stream size                              : 18.0 MiB (0%)
Title                                    : Commentary 1
Language                                 : English
Default                                  : No
Forced                                   : No

Subtitle #16
ID                                       : 22
Format                                   : VobSub
Muxing mode                              : zlib
Codec ID                                 : S_VOBSUB
Codec ID/Info                            : Picture based subtitle format used on DVDs
Duration                                 : 1 h 48 min
Bit rate                                 : 17.2 kb/s
Count of elements                        : 2249
Stream size                              : 13.3 MiB (0%)
Title                                    : Commentary 1
Language                                 : Spanish
Default                                  : No
Forced                                   : No

Subtitle #17
ID                                       : 23
Format                                   : VobSub
Muxing mode                              : zlib
Codec ID                                 : S_VOBSUB
Codec ID/Info                            : Picture based subtitle format used on DVDs
Duration                                 : 1 h 48 min
Bit rate                                 : 17.5 kb/s
Count of elements                        : 2255
Stream size                              : 13.5 MiB (0%)
Title                                    : Commentary 1
Language                                 : French
Default                                  : No
Forced                                   : No

Subtitle #18
ID                                       : 24
Format                                   : VobSub
Muxing mode                              : zlib
Codec ID                                 : S_VOBSUB
Codec ID/Info                            : Picture based subtitle format used on DVDs
Duration                                 : 1 h 47 min
Bit rate                                 : 20.6 kb/s
Count of elements                        : 1994
Stream size                              : 15.9 MiB (0%)
Title                                    : Commentary 2
Language                                 : English
Default                                  : No
Forced                                   : No

Subtitle #19
ID                                       : 25
Format                                   : VobSub
Muxing mode                              : zlib
Codec ID                                 : S_VOBSUB
Codec ID/Info                            : Picture based subtitle format used on DVDs
Duration                                 : 1 h 48 min
Bit rate                                 : 17.6 kb/s
Count of elements                        : 1922
Stream size                              : 13.6 MiB (0%)
Title                                    : Commentary 2
Language                                 : Spanish
Default                                  : No
Forced                                   : No

Subtitle #20
ID                                       : 26
Format                                   : VobSub
Muxing mode                              : zlib
Codec ID                                 : S_VOBSUB
Codec ID/Info                            : Picture based subtitle format used on DVDs
Duration                                 : 1 h 48 min
Bit rate                                 : 18.7 kb/s
Count of elements                        : 1923
Stream size                              : 14.4 MiB (0%)
Title                                    : Commentary 2
Language                                 : French
Default                                  : No
Forced                                   : No

Subtitle #21
ID                                       : 27
Format                                   : UTF-8
Codec ID                                 : S_TEXT/UTF8
Codec ID/Info                            : UTF-8 Plain Text
Duration                                 : 1 h 44 min
Bit rate                                 : 58 b/s
Count of elements                        : 1572
Stream size                              : 44.9 KiB (0%)
Language                                 : English
Default                                  : No
Forced                                   : No

Subtitle #22
ID                                       : 28
Format                                   : UTF-8
Codec ID                                 : S_TEXT/UTF8
Codec ID/Info                            : UTF-8 Plain Text
Duration                                 : 1 h 48 min
Bit rate                                 : 73 b/s
Count of elements                        : 783
Stream size                              : 58.7 KiB (0%)
Language                                 : Arabic
Default                                  : No
Forced                                   : No

Subtitle #23
ID                                       : 29
Format                                   : UTF-8
Codec ID                                 : S_TEXT/UTF8
Codec ID/Info                            : UTF-8 Plain Text
Duration                                 : 1 h 47 min
Bit rate                                 : 45 b/s
Count of elements                        : 1509
Stream size                              : 35.5 KiB (0%)
Language                                 : Chinese
Default                                  : No
Forced                                   : No

Subtitle #24
ID                                       : 30
Format                                   : UTF-8
Codec ID                                 : S_TEXT/UTF8
Codec ID/Info                            : UTF-8 Plain Text
Duration                                 : 1 h 47 min
Bit rate                                 : 52 b/s
Count of elements                        : 1191
Stream size                              : 41.1 KiB (0%)
Language                                 : Danish
Default                                  : No
Forced                                   : No

Subtitle #25
ID                                       : 31
Format                                   : UTF-8
Codec ID                                 : S_TEXT/UTF8
Codec ID/Info                            : UTF-8 Plain Text
Duration                                 : 1 h 47 min
Bit rate                                 : 53 b/s
Count of elements                        : 893
Stream size                              : 41.7 KiB (0%)
Language                                 : Dutch
Default                                  : No
Forced                                   : No

Subtitle #26
ID                                       : 32
Format                                   : UTF-8
Codec ID                                 : S_TEXT/UTF8
Codec ID/Info                            : UTF-8 Plain Text
Duration                                 : 1 h 48 min
Bit rate                                 : 96 b/s
Count of elements                        : 1445
Stream size                              : 76.4 KiB (0%)
Language                                 : Persian
Default                                  : No
Forced                                   : No

Subtitle #27
ID                                       : 33
Format                                   : UTF-8
Codec ID                                 : S_TEXT/UTF8
Codec ID/Info                            : UTF-8 Plain Text
Duration                                 : 1 h 47 min
Bit rate                                 : 46 b/s
Count of elements                        : 1400
Stream size                              : 36.4 KiB (0%)
Language                                 : Finnish
Default                                  : No
Forced                                   : No

Subtitle #28
ID                                       : 34
Format                                   : UTF-8
Codec ID                                 : S_TEXT/UTF8
Codec ID/Info                            : UTF-8 Plain Text
Duration                                 : 1 h 47 min
Bit rate                                 : 57 b/s
Count of elements                        : 1417
Stream size                              : 45.3 KiB (0%)
Language                                 : French
Default                                  : No
Forced                                   : No

Subtitle #29
ID                                       : 35
Format                                   : UTF-8
Codec ID                                 : S_TEXT/UTF8
Codec ID/Info                            : UTF-8 Plain Text
Duration                                 : 1 h 47 min
Bit rate                                 : 52 b/s
Count of elements                        : 1375
Stream size                              : 41.2 KiB (0%)
Language                                 : German
Default                                  : No
Forced                                   : No

Subtitle #30
ID                                       : 36
Format                                   : UTF-8
Codec ID                                 : S_TEXT/UTF8
Codec ID/Info                            : UTF-8 Plain Text
Duration                                 : 1 h 47 min
Bit rate                                 : 108 b/s
Count of elements                        : 1168
Stream size                              : 85.6 KiB (0%)
Language                                 : Greek
Default                                  : No
Forced                                   : No

Subtitle #31
ID                                       : 37
Format                                   : UTF-8
Codec ID                                 : S_TEXT/UTF8
Codec ID/Info                            : UTF-8 Plain Text
Duration                                 : 1 h 47 min
Bit rate                                 : 87 b/s
Count of elements                        : 1408
Stream size                              : 69.1 KiB (0%)
Language                                 : Hebrew
Default                                  : No
Forced                                   : No

Subtitle #32
ID                                       : 38
Format                                   : UTF-8
Codec ID                                 : S_TEXT/UTF8
Codec ID/Info                            : UTF-8 Plain Text
Duration                                 : 1 h 47 min
Bit rate                                 : 140 b/s
Count of elements                        : 1419
Stream size                              : 111 KiB (0%)
Language                                 : Hindi
Default                                  : No
Forced                                   : No

Subtitle #33
ID                                       : 39
Format                                   : UTF-8
Codec ID                                 : S_TEXT/UTF8
Codec ID/Info                            : UTF-8 Plain Text
Duration                                 : 1 h 47 min
Bit rate                                 : 53 b/s
Count of elements                        : 1406
Stream size                              : 42.2 KiB (0%)
Language                                 : Norwegian
Default                                  : No
Forced                                   : No

Subtitle #34
ID                                       : 40
Format                                   : UTF-8
Codec ID                                 : S_TEXT/UTF8
Codec ID/Info                            : UTF-8 Plain Text
Duration                                 : 1 h 47 min
Bit rate                                 : 55 b/s
Count of elements                        : 1364
Stream size                              : 43.9 KiB (0%)
Language                                 : Spanish
Default                                  : No
Forced                                   : No

Subtitle #35
ID                                       : 41
Format                                   : UTF-8
Codec ID                                 : S_TEXT/UTF8
Codec ID/Info                            : UTF-8 Plain Text
Duration                                 : 1 h 47 min
Bit rate                                 : 120 b/s
Count of elements                        : 1417
Stream size                              : 95.5 KiB (0%)
Language                                 : Thai
Default                                  : No
Forced                                   : No

Subtitle #36
ID                                       : 42
Format                                   : UTF-8
Codec ID                                 : S_TEXT/UTF8
Codec ID/Info                            : UTF-8 Plain Text
Duration                                 : 1 h 47 min
Bit rate                                 : 58 b/s
Count of elements                        : 1411
Stream size                              : 46.1 KiB (0%)
Language                                 : Turkish
Default                                  : No
Forced                                   : No

Subtitle #37
ID                                       : 43
Format                                   : UTF-8
Codec ID                                 : S_TEXT/UTF8
Codec ID/Info                            : UTF-8 Plain Text
Duration                                 : 1 h 48 min
Bit rate                                 : 73 b/s
Count of elements                        : 1398
Stream size                              : 58.6 KiB (0%)
Language                                 : Vietnamese
Default                                  : No
Forced                                   : No

Menu
00:00:00.000                             : en:Chapter 1
00:03:04.726                             : en:Chapter 2
00:05:53.019                             : en:Chapter 3
00:09:30.820                             : en:Chapter 4
00:13:19.089                             : en:Chapter 5
00:16:48.716                             : en:Chapter 6
00:20:12.544                             : en:Chapter 7
00:22:06.408                             : en:Chapter 8
00:27:09.628                             : en:Chapter 9
00:31:58.958                             : en:Chapter 10
00:36:51.709                             : en:Chapter 11
00:41:06.172                             : en:Chapter 12
00:44:45.766                             : en:Chapter 13
00:46:56.605                             : en:Chapter 14
00:50:10.966                             : en:Chapter 15
00:53:18.028                             : en:Chapter 16
00:55:33.038                             : en:Chapter 17
00:59:07.752                             : en:Chapter 18
01:03:05.239                             : en:Chapter 19
01:07:06.439                             : en:Chapter 20
01:09:15.568                             : en:Chapter 21
01:12:29.720                             : en:Chapter 22
01:16:46.393                             : en:Chapter 23
01:20:43.713                             : en:Chapter 24
01:25:53.398                             : en:Chapter 25
01:31:03.791                             : en:Chapter 26
01:34:46.972                             : en:Chapter 27
01:39:52.736                             : en:Chapter 28

Source Information
Release: Deadpool.2016.2160p.BluRay.x265.10bit.SDR.DTS-HD.MA.TrueHD.7.1.Atmos-SWTYBLZ.mkv (26.58 GBs)



UTR wrote:

Note From UTR
We have no issue with individuals posting or re-uploading our torrents on a platform we aren't on. However, if this is something you'd like to do, please do so in a 'as-is' format. We ask that you do not create a new torrent, include all descriptions you see above including the UTR logo, tags, notes and screenshots. If you'd like to become a permanent poster on a website we don't post to, feel free to get in contact with a UniTeam member.

If possible please donate: BTC 1QA5fum5AyXvWzdVCkQzUNvw3Ef15fHRaR


Category:Movies > HEVC/x265
Lang:English  English
Total Size:5.82 GB
Info Hash:88028c64cd3fde020c4f602ee3c99bad7d274aca
Added By:UTR
Date Added:10-06-2018 17:04:14

Files

File List: 
 File Size
Deadpool 2016 (2160p x265 10bit S92 Joy).mkv5.22 GB
Encoded by JoyBell (UTR).txt2.57 kB
Extras/Deleted and Extended Scenes with Commentary.mkv86 MB
Extras/From Comics to Screen.mkv319 MB
Extras/Gag Reel.mkv24 MB
Extras/Pre-vizualization 1.mkv27 MB
Extras/Pre-vizualization 2.mkv17 MB
Extras/Stuntviz.mkv8 MB
Extras/Trailers Fun Sack and Other Stuff (Play All).mkv128 MB
folder.jpg331.77 kB
How to play HEVC (THIS FILE).txt3.01 kB
Ninite K-Lite Codecs Unattended Silent Installer and Updater.website561.00 B



Loading...
Comments

There are currently no comments. Be the first one to write something !

Disclaimer: None of the files shown here are actually hosted or transmitted by this server. The links are provided solely by this site's users. The site moderation is also a service provided by the site's users. The administrator of this site (ettv.tv) cannot be held responsible for what its users post, or any other actions of its users. You may not use this site to distribute or download any material when you do not have the legal rights to do so. It is your own responsibility to adhere to these terms.