dtone hereditary Doug Sneyd the handmaids tale humans S03E04 Colony S03E06 Lucifer playboy cartoons Handmaid star trek discovery español 13 reasons why the originals Impulse westworld family guy NATALIE HECK fgt Lost in Space 2018 s01e07 S.W.A.T.2017.S01E01.HDTV.x264 KILLERS ettv Gotham avengers infinity war 2018 Six survivor Into The Badlands Art of Doug Sneyd hindi SAVANNAH GOLD Elementary supergirl The Walking Dead arrow español brooklyn nine nine Deadpool 2 legion ddr big bang theory español The Expanse S03E09 ettv humans tomb raider the expanse QUANTICO black panther billions expanse the 100 CODE BLACK Krypton archer the secret life of pets JARUSHKA ROSS evo ethd doug syed Arrow.S06E02.HDTV.x264 LOL ettv atomic blonde rus avengers infinity war etmovies handmaids tale Ready player one etrg judge judy S22 masterchef australia Masterchef 2018 ita SEAL Team Fear the walking dead more s12e13 colony Supernatural the flash 
Warning! Use a VPN When Downloading Torrents!
Your IP Address is 172.81.144.194. Location is United States
Your Internet Provider is tracking your torrent activity! Hide your IP ADDRESS with a VPN!
We strongly recommend using Trust.Zone VPN to anonymize your torrenting. It's FREE!
Get VPN Now for FREE!
ETTV Recommended TV Shows
Marvels.Cloak.and.Dagger.S01E01.WEB.x264-TBS[ettv] torrent
Humans.S03E04.HDTV.x264-MTB[ettv] torrent
Nashville.2012.S06E09.WEB.x264-TBS[ettv] torrent
Sense8.S02E12.WEB.x264-STRiFE[ettv] torrent

ETTV Recommended Xvid
Unsane.2018.BRRip.XViD-ETRG torrent
Pacific.Rim.Uprising.2018.BRRip.XViD-ETRG torrent
211 2018 HDRip.XViD-ETRG torrent
2036.Origin.Unknown.2018.HDRip.XviD.AC3-EVO torrent

ETTV Recommended HD
Star.Wars.4K77.2160p.UHD.no-DNR.35mm.x265-v1.0 [TN1] -DTOne torrent
Pacific.Rim.Uprising.2018.1080p.BluRay.x264-GECKOS[EtHD] torrent
211.2018.1080p.WEB-DL.H264.AC3-EVO[EtHD] torrent
2036 Origin Unknown.2018.1080p.WEB-DL.DD5.1.H264-CMRG[EtHD] torrent

ETTV Recommended Cam
Deadpool 2 2018 HD-TS.XViD.AC3-ETRG torrent
Rampage 2018 NEW HD-TS X264-24HD torrent
Jurassic World Fallen Kingdom 2018 720p HDCAM V.2 X264-24HD torrent
Oceans.8.2018.CAM.X264-CaixistaEstupido torrent

ETTV Recommended Foreign
Pandigai (2018) 480p Web Hq - AVC - AAC - E-Subs - DTOne Exclusive.mkv torrent
Khatarnak Policewala (2018) 720p Web Rip - AVC - AAC - E-Subs -  DTOne Exclusive torrent
Kaali (2018) [TAMIL - 720p - WEB HDRip - x264 - DD 5.1 - ESub - 2GB] - MAZE torrent
Blame.2017.1080p.BluRay.x264-GHOULS[EtHD] torrent

Social

Loading...

Download Torrent "Creed (2016), [XviD - Ita Eng Ac3 - MultiSub]"

IMDB Details
Description:

N/A

Genre:

N/A

Download Torrent (Magnet)
Download Torrent (File)
Seeds: 32
Leechers: 0
Completed: 5,142 
Last Checked: 19-05-2018 03:59:39


Loading...
Details
Title:Creed (2016), [XviD - Ita Eng Ac3 - MultiSub]
Description:
Creed - Nato per combattere (2016), [XviD - Ita Eng Ac3 - MultiSub] TNT Village

.: Release Originale :.

http://forum.tntvillage.scambioetico.org/index.php?showtopic=545075

.: Trama :.

Adonis Creed è il figlio naturale del grande pugile Apollo, che lo ha avuto da una relazione extraconiugale poco prima di morire sul ring. Non avendo mai conosciuto suo padre e dopo un'infanzia difficile tra assistenti sociali e riformatori, cresce a casa della moglie di Apollo che lo accoglie come un figlio. Col tempo si accorge di amare il pugilato proprio come il padre e inizia a combattere con il cognome della madre per guadagnarsi merito senza paragoni ingombranti. Disputa piccoli incontri a Tijuana (Messico) e nutre un grande interesse per le leggendarie sfide tra suo padre e Rocky Balboa.

.: Locandina :.



.: Crediti :.

Titolo originale: Creed
Nazionalità: USA
Anno: 2016
Genere: Drammatico
Regia: Ryan Coogler
Produzione: USA
Distribuzione: WARNER BROS
Data di uscita: 2016
Cast: Sylvester Stallone, Graham McTavish, Michael B. Jordan, Tessa Thompson, Phylicia Rashad
Durata: 127 min.
========================================

.: Dati tecnici del file :.
General
Complete name : CR33D\CR33D.avi
Format : AVI
Format/Info : Audio Video Interleave
Format profile : OpenDML
Format settings : rec
File size : 2.10 GiB
Duration : 2 h 7 min
Overall bit rate : 2 360 kb/s
Writing application : AVI-Mux GUI 1.17.8.3, Feb 16 201019:42:50

Video
ID : 0
Format : MPEG-4 Visual
Format profile : Advanced [email protected]
Format settings, BVOP : 2
Format settings, QPel : No
Format settings, GMC : 3 warppoints
Format settings, Matrix : Default (H.263)
Muxing mode : Packed bitstream
Codec ID : XVID
Codec ID/Hint : XviD
Duration : 2 h 7 min
Bit rate : 1 777 kb/s
Width : 656 pixels
Height : 272 pixels
Display aspect ratio : 2.40:1
Frame rate : 25.000 FPS
Color space : YUV
Chroma subsampling : 4:2:0
Bit depth : 8 bits
Scan type : Interlaced
Scan order : Bottom Field First
Compression mode : Lossy
Bits/(Pixel*Frame) : 0.398
Stream size : 1.58 GiB (75%)
Writing library : XviD 1.2.0.dev47 (UTC 2006-11-01)

Audio #1
ID : 1
Format : AC-3
Format/Info : Audio Coding 3
Mode extension : CM (complete main)
Format settings, Endianness : Big
Codec ID : 2000
Duration : 2 h 7 min
Bit rate mode : Constant
Bit rate : 384 kb/s
Channel(s) : 6 channels
Channel positions : Front: L C R, Side: L R, LFE
Sampling rate : 48.0 kHz
Frame rate : 31.250 FPS (1536 spf)
Compression mode : Lossy
Stream size : 350 MiB (16%)
Alignment : Aligned on interleaves
Interleave, duration : 64 ms (1.60 video frames)
Interleave, preload duration : 192 ms
Title : Ita

Audio #2
ID : 2
Format : AC-3
Format/Info : Audio Coding 3
Format profile : Dolby Digital
Mode extension : CM (complete main)
Format settings, Endianness : Big
Codec ID : 2000
Duration : 2 h 7 min
Bit rate mode : Constant
Bit rate : 192 kb/s
Channel(s) : 2 channels
Channel positions : Front: L R
Sampling rate : 48.0 kHz
Frame rate : 31.250 FPS (1536 spf)
Compression mode : Lossy
Stream size : 175 MiB (8%)
Alignment : Aligned on interleaves
Interleave, duration : 64 ms (1.60 video frames)
Interleave, preload duration : 192 ms








Category:Movies > XviD
Lang:Italian  Italian
Total Size:2.12 GB
Info Hash:521e484c6c6b748b14bfd59be48ebf55cabf84e0
Added By:Markus03
Date Added:19-05-2018 03:59:36

Files

File List: 
 File Size
CR33D.avi2.10 GB
CR33D.idx403.69 kB
CR33D.sub21 MB



Loading...
Comments

There are currently no comments. Be the first one to write something !

Disclaimer: None of the files shown here are actually hosted or transmitted by this server. The links are provided solely by this site's users. The site moderation is also a service provided by the site's users. The administrator of this site (ettv.tv) cannot be held responsible for what its users post, or any other actions of its users. You may not use this site to distribute or download any material when you do not have the legal rights to do so. It is your own responsibility to adhere to these terms.